<?xml version="1.0" standalone="no"?>
<!DOCTYPE svg PUBLIC "-//W3C//DTD SVG 1.1//EN" "http://www.w3.org/Graphics/SVG/1.1/DTD/svg11.dtd" >
<svg xmlns="http://www.w3.org/2000/svg" xmlns:xlink="http://www.w3.org/1999/xlink" version="1.1">
<metadata>
Created by FontForge 20201107 at Fri Apr  8 12:33:47 2016
 By Jimmy Wärting
Copyright 2011-2014 Monotype Imaging Inc. All rights reserved.
</metadata>
<defs>
<font id="AkkoW05-Light" horiz-adv-x="550" >
  <font-face 
    font-family="AkkoW05-Light"
    font-weight="300"
    font-stretch="normal"
    units-per-em="1000"
    panose-1="2 11 3 3 6 3 3 2 3 3"
    ascent="800"
    descent="-200"
    x-height="535"
    cap-height="680"
    bbox="-171.143 -240 1150 1057"
    underline-thickness="50"
    underline-position="-125"
    unicode-range="U+000D-FB06"
  />
<missing-glyph horiz-adv-x="485" 
d="M263 111h-53v63h53v-63zM257 222h-46v16q0 37 8 66t49 65q21 21 33.5 39t12.5 41q0 33 -21.5 56.5t-50.5 23.5q-30 0 -51 -22t-26 -68l-48 8q7 67 42 98.5t86 31.5q52 0 85 -34t33 -90q0 -31 -13 -56t-47 -57q-25 -23 -34 -36.5t-10.5 -28.5t-1.5 -36v-17zM47 47h391v585
h-391v-585zM0 680h485v-680h-485v680z" />
    <glyph glyph-name="IJ" unicode="IJ" horiz-adv-x="553" 
d="M156 0h-53q-10 0 -10 10v660q0 10 10 10h53q10 0 10 -10v-660q0 -10 -10 -10zM388 170v500q0 10 10 10h53q10 0 10 -10v-503q0 -63 -11 -100.5t-39 -57t-89 -19.5q-14 0 -34 2.5t-28 4.5q-7 3 -6 13l4 39q2 8 12 6q20 -5 45 -5q51 0 62 26t11 94z" />
    <glyph glyph-name="ij" unicode="ij" horiz-adv-x="504" 
d="M157 0h-51q-10 0 -10 10v515q0 10 10 10h51q10 0 10 -10v-515q0 -10 -10 -10zM163 649h-62q-10 0 -10 10v65q0 10 10 10h62q10 0 10 -10v-65q0 -10 -10 -10zM399 649h-62q-10 0 -10 10v65q0 10 10 10h62q10 0 10 -10v-65q0 -10 -10 -10zM332 -9v534q0 10 10 10h51
q10 0 10 -10v-570q-1 -41 -10.5 -74t-38.5 -49t-84 -16q-43 0 -69 8q-7 2 -7 7l8 42q0 1 2.5 3t6.5 1q28 -6 48 -6q22 0 39.5 5t25.5 29.5t8 85.5z" />
    <glyph glyph-name="napostrophe" unicode="&#x22;n" horiz-adv-x="561" 
d="M274 545q75 0 118 -13.5t65 -48.5t22 -111v-362q0 -10 -10 -10h-51q-10 0 -10 10v355q0 45 -10 71t-37 39t-88 13q-64 0 -104 -9q-10 -3 -10 -11v-458q0 -10 -10 -10h-51q-10 0 -10 10v506q0 8 10 10q37 7 87.5 13t88.5 6zM40 618h-20q-4 0 -6.5 2.5t-1.5 5.5l48 191
q3 10 14 10h44q5 0 8 -3.5t2 -7.5l-63 -181q-2 -6 -6 -11.5t-19 -5.5z" />
    <glyph glyph-name="uniFB00" unicode="ff" horiz-adv-x="595" 
d="M467 587v-46q0 -6 6 -6h97q10 0 10 -10v-36q0 -10 -10 -10h-97q-6 0 -6 -6v-463q0 -10 -10 -10h-51q-10 0 -10 10v463q0 6 -6 6h-196q-6 0 -6 -6v-463q0 -10 -10 -10h-51q-10 0 -10 10v463q0 6 -6 6h-81q-10 0 -10 10v36q0 10 10 10h81q6 0 6 6v49q0 43 11 74.5t41 51
t83 19.5q46 0 70 -7q9 -3 7 -13l-4 -33q-2 -8 -12 -6q-26 6 -57 6q-40 0 -54 -22.5t-14 -72.5v-46q0 -6 6 -6h196q6 0 6 6v49q0 43 11 74.5t41 51t83 19.5q46 0 70 -7q9 -3 7 -13l-4 -33q-2 -8 -12 -6q-26 6 -57 6q-40 0 -54 -22.5t-14 -72.5z" />
    <glyph glyph-name="uniFB01" unicode="fi" horiz-adv-x="563" 
d="M458 0h-52q-10 0 -10 10v458q0 11 -12 11h-190q-6 0 -6 -6v-463q0 -10 -10 -10h-51q-10 0 -10 10v463q0 6 -6 6h-81q-10 0 -10 10v36q0 10 10 10h81q6 0 6 6v47q0 79 52.5 113t153.5 34q70 0 128 -7q4 -1 6 -4.5t1 -8.5l-3 -33q-3 -8 -12 -6q-46 6 -116 6
q-72 0 -105.5 -20t-33.5 -77v-44q0 -6 6 -6h264q10 0 10 -10v-515q0 -10 -10 -10z" />
    <glyph glyph-name="uniFB02" unicode="fl" horiz-adv-x="584" 
d="M466 714v-594q0 -44 9.5 -59t39.5 -15h41q9 0 9 -8l-2 -31q-2 -8 -8 -9q-30 -7 -61 -7q-57 0 -78 28t-21 101v539q0 10 -2 12q-4 4 -34 7.5t-62 3.5q-59 0 -84 -19t-25 -76v-46q0 -6 6 -6h97q10 0 10 -10v-36q0 -10 -10 -10h-97q-6 0 -6 -6v-463q0 -10 -10 -10h-51
q-10 0 -10 10v463q0 6 -6 6h-81q-10 0 -10 10v36q0 10 10 10h81q6 0 6 6v49q0 63 21.5 92t65 41t104.5 12q69 0 148 -11q10 -2 10 -10z" />
    <glyph glyph-name="uniFB03" unicode="ffi" horiz-adv-x="842" 
d="M252 735q46 0 70 -7q9 -3 7 -13l-4 -33q-2 -8 -12 -6q-26 6 -57 6q-40 0 -54 -22.5t-14 -72.5v-46q0 -6 6 -6h196q6 0 6 6v47q0 79 52.5 113t153.5 34h1q70 0 128 -7q4 -1 6 -4.5t1 -8.5l-3 -33q-3 -8 -12 -6q-46 6 -117 6q-72 0 -105.5 -20t-33.5 -77v-44q0 -6 6 -6h264
q10 0 10 -10v-515q0 -10 -10 -10h-52q-10 0 -10 10v458q0 11 -12 11h-190q-6 0 -6 -6v-463q0 -10 -10 -10h-51q-10 0 -10 10v463q0 6 -6 6h-196q-6 0 -6 -6v-463q0 -10 -10 -10h-51q-10 0 -10 10v463q0 6 -6 6h-81q-10 0 -10 10v36q0 10 10 10h81q6 0 6 6v49q0 43 11 74.5
t41 51t83 19.5z" />
    <glyph glyph-name="uniFB04" unicode="ffl" horiz-adv-x="863" 
d="M587 735q69 0 148 -11q10 -2 10 -10v-594q0 -44 9.5 -59t39.5 -15h41q9 0 9 -8l-2 -31q-2 -8 -8 -9q-30 -7 -61 -7q-57 0 -78 28t-21 101v539q0 10 -2 12q-4 4 -34 7.5t-62 3.5q-59 0 -84 -19t-25 -76v-46q0 -6 6 -6h97q10 0 10 -10v-36q0 -10 -10 -10h-97q-6 0 -6 -6
v-463q0 -10 -10 -10h-51q-10 0 -10 10v463q0 6 -6 6h-196q-6 0 -6 -6v-463q0 -10 -10 -10h-51q-10 0 -10 10v463q0 6 -6 6h-81q-10 0 -10 10v36q0 10 10 10h81q6 0 6 6v49q0 43 11 74.5t41 51t83 19.5q46 0 70 -7q9 -3 7 -13l-4 -33q-2 -8 -12 -6q-26 6 -57 6
q-40 0 -54 -22.5t-14 -72.5v-46q0 -6 6 -6h196q6 0 6 6v49q0 63 21.5 92t65 41t104.5 12z" />
    <glyph glyph-name=".notdef" horiz-adv-x="485" 
d="M263 111h-53v63h53v-63zM257 222h-46v16q0 37 8 66t49 65q21 21 33.5 39t12.5 41q0 33 -21.5 56.5t-50.5 23.5q-30 0 -51 -22t-26 -68l-48 8q7 67 42 98.5t86 31.5q52 0 85 -34t33 -90q0 -31 -13 -56t-47 -57q-25 -23 -34 -36.5t-10.5 -28.5t-1.5 -36v-17zM47 47h391v585
h-391v-585zM0 680h485v-680h-485v680z" />
    <glyph glyph-name="uni000D" unicode="&#xd;" horiz-adv-x="0" 
 />
    <glyph glyph-name="space" unicode=" " horiz-adv-x="200" 
 />
    <glyph glyph-name="exclam" unicode="!" horiz-adv-x="280" 
d="M162 210h-34q-10 0 -10 10l-16 450q0 10 10 10h65q10 0 10 -10l-15 -450q0 -10 -10 -10zM178 0h-72q-10 0 -10 10v79q0 10 10 10h72q10 0 10 -10v-79q0 -10 -10 -10z" />
    <glyph glyph-name="quotedbl" unicode="&#x22;" horiz-adv-x="345" 
d="M115 469h-33q-10 0 -10 10l-10 255q0 10 10 10h56q10 0 10 -10l-13 -255q0 -10 -10 -10zM260 469h-33q-10 0 -10 10l-10 255q0 10 10 10h56q10 0 10 -10l-13 -255q0 -10 -10 -10z" />
    <glyph glyph-name="numbersign" unicode="#" horiz-adv-x="545" 
d="M139 251l34 199q1 3 -1 4.5t-4 1.5h-67q-4 0 -6.5 3t-1.5 7l6 31q2 10 11 10h67q2 0 4.5 2t3.5 4l29 157q2 10 11 10h36q4 0 7 -3t2 -7l-29 -157q-1 -6 4 -6h99q4 0 6 6l29 157q2 10 11 10h37q4 0 7 -3t2 -7l-28 -157q-1 -6 4 -6h70q4 0 7 -3t2 -7l-6 -31q-2 -10 -12 -10
h-70q-5 0 -7 -6l-34 -199q-1 -6 5 -6h70q4 0 6.5 -3t1.5 -7l-5 -30q-2 -10 -11 -10h-70q-2 0 -4.5 -1.5t-2.5 -3.5l-33 -180q-2 -10 -11 -10h-37q-4 0 -7 3t-2 7l31 179q2 6 -4 6h-97q-2 0 -4.5 -1.5t-2.5 -3.5l-32 -180q-2 -10 -11 -10h-36q-4 0 -7 3t-2 7l31 179q2 6 -4 6
h-67q-4 0 -7 3t-2 7l5 30q2 10 12 10h67q2 0 4 2t3 4zM304 251l34 199q1 3 -1 4.5t-4 1.5h-97q-5 0 -7 -6l-34 -199q-1 -6 5 -6h99z" />
    <glyph glyph-name="dollar" unicode="$" 
d="M262 682v78q0 10 10 10h41q10 0 10 -10v-78q0 -4 3 -6q25 -1 56 -6t46 -11q2 -1 4 -3t2 -4l-4 -44q0 -2 -2.5 -4t-5.5 -1q-21 7 -58.5 11t-67.5 4q-62 0 -89 -22t-27 -73q0 -41 25 -72t108 -88q74 -52 103.5 -95.5t29.5 -97.5q0 -38 -11.5 -74t-43.5 -60t-81 -31
q-2 -1 -2 -5v-87q0 -10 -10 -10h-40q-10 0 -10 10v84q0 4 -3 5q-110 8 -146 20q-4 1 -4 7l4 47q0 2 2 3.5t6 0.5q71 -15 136 -15q77 0 105.5 24t28.5 77q0 45 -24 73.5t-87 73.5l-34 24q-64 46 -94 86t-30 97q0 68 34 108.5t116 46.5q4 1 4 7z" />
    <glyph glyph-name="percent" unicode="%" horiz-adv-x="722" 
d="M132 10l402 660q6 10 14 10h29q4 0 7 -3t2 -7l-402 -660q-6 -10 -14 -10h-29q-4 0 -7 3t-2 7zM122 518q0 -37 6 -70t17 -44q11 -12 39 -12q29 0 40 12q8 8 15.5 37t7.5 77q0 37 -6 70.5t-17 45.5q-12 12 -40 12q-27 0 -39 -12q-8 -9 -15.5 -38.5t-7.5 -77.5zM305 518
q0 -31 -6 -65.5t-16.5 -56t-20.5 -29.5q-28 -21 -78 -21t-77 21q-11 8 -21.5 29.5t-16.5 56t-6 65.5t6 65.5t16.5 56t21.5 30.5q25 20 77 20q51 0 78 -20q21 -18 32 -63t11 -89zM467 161q0 -35 6 -68.5t17 -45.5q11 -11 40 -11q28 0 39 11q8 9 16 38.5t8 75.5q0 37 -6.5 71
t-17.5 45q-11 12 -39 12q-29 0 -40 -12q-8 -8 -15.5 -38t-7.5 -78zM651 161q0 -31 -6 -65.5t-16.5 -56t-21.5 -29.5q-25 -20 -77 -20q-50 0 -77 21q-11 8 -21.5 29.5t-16.5 55.5t-6 65q0 32 6 66.5t16.5 56t21.5 29.5q25 20 77 20t77 -20q11 -8 21.5 -29.5t16.5 -56t6 -66.5
z" />
    <glyph glyph-name="ampersand" unicode="&#x26;" horiz-adv-x="680" 
d="M407 152q0 5 -7 12l-149 150q-7 5 -11 5q-5 0 -13 -4q-55 -31 -74.5 -60.5t-19.5 -86.5q0 -43 9 -69t33.5 -40t76.5 -14q40 0 75.5 15.5t71.5 73.5q8 13 8 18zM372 537q0 42 -9 62t-28 28.5t-54 8.5q-59 0 -81 -21t-22 -78q0 -60 20 -86q15 -21 35.5 -41t28.5 -20
q13 0 45 19.5t48 40.5q17 21 17 87zM613 -6q-45 0 -74 30l-80 80q-2 2 -6 2.5t-6 -3.5q-41 -63 -83 -88t-112 -25q-66 0 -106 13.5t-61.5 49t-21.5 113.5q0 71 28 110.5t101 78.5q7 4 7 8q0 2 -4 7q-44 39 -64 76t-20 90q0 55 16 88.5t50 49.5t99 16q58 0 92.5 -11.5
t53 -41.5t18.5 -95q0 -34 -7.5 -66.5t-35 -60.5t-88.5 -60q-4 -2 -4 -7q0 -4 3 -7l122 -121q3 -4 9 -6q5 0 9 9q12 20 35 78t38 106q3 10 13 10h54q8 0 4 -12q-16 -43 -49 -116.5t-51 -108.5l-2 -9l3 -7q63 -66 89.5 -89t47.5 -23l22 2q8 0 9 -6v-39q0 -7 -5 -9
q-22 -6 -43 -6z" />
    <glyph glyph-name="quotesingle" unicode="'" horiz-adv-x="200" 
d="M115 469h-33q-10 0 -10 10l-10 255q0 10 10 10h56q10 0 10 -10l-13 -255q0 -10 -10 -10z" />
    <glyph glyph-name="parenleft" unicode="(" horiz-adv-x="360" 
d="M145 293q0 -160 11 -235t38 -116.5t79 -62.5q4 -1 4 -11v-32q-1 -6 -10 -6q-8 0 -23 4.5t-28 11.5q-43 22 -74 64.5t-48 125t-17 258.5q0 149 12.5 231.5t42.5 134.5t84 79q13 7 28 12t23 5q9 0 10 -7v-32q0 -9 -4 -10q-52 -21 -79 -62.5t-38 -116.5t-11 -235z" />
    <glyph glyph-name="parenright" unicode=")" horiz-adv-x="360" 
d="M215 292q0 133 -9 217.5t-38.5 130t-81.5 66.5q-4 1 -4 10v32q1 7 10 7q8 0 23 -5t28 -12q54 -27 84 -79t43 -135t13 -233q0 -123 -10.5 -214t-43 -147.5t-86.5 -84.5q-5 -3 -21.5 -9.5t-29.5 -6.5q-9 0 -10 6v32q0 10 4 11q41 17 64 43t35 58t21 93t9 220z" />
    <glyph glyph-name="asterisk" unicode="*" horiz-adv-x="499" 
d="M269 312h-40q-10 0 -10 10l5 127q0 10 10 10h30q10 0 10 -10l5 -127q0 -10 -10 -10zM229 745h40q10 0 10 -10l-5 -127q0 -10 -10 -10h-30q-10 0 -10 10l-5 127q0 10 10 10zM447 439l-20 -35q-5 -8 -14 -4l-108 67q-4 2 -5 6t1 7l15 27q5 8 14 4l113 -59q4 -2 5 -6t-1 -7z
M50 617l20 35q4 9 14 4l107 -67q4 -2 5 -6t-1 -8l-15 -26q-5 -8 -13 -3l-113 58q-4 2 -5 6t1 7zM426 652l20 -34q5 -9 -3 -14l-113 -59q-9 -4 -14 4l-15 26q-2 3 -1 7.5t5 6.5l107 67q10 5 14 -4zM70 403l-19 34q-5 9 3 14l113 59q1 1 5 1.5t8 -5.5l16 -26q2 -3 1 -7.5
t-5 -6.5l-108 -67q-4 -2 -8 -1t-6 5z" />
    <glyph glyph-name="plus" unicode="+" 
d="M246 300v164q0 10 10 10h39q4 0 7.5 -3t3.5 -7v-164q0 -6 6 -6h162q11 0 11 -11v-35q0 -10 -11 -10h-162q-6 0 -6 -7v-173q0 -2 -2 -6.5t-9 -4.5h-39q-10 0 -10 11v173q0 7 -6 7h-165q-10 0 -10 10v35q0 11 10 11h165q6 0 6 6z" />
    <glyph glyph-name="comma" unicode="," horiz-adv-x="267" 
d="M114 -142h-34q-10 0 -10 10l36 255q2 10 10 10h55q10 0 10 -10l-57 -255q-2 -10 -10 -10z" />
    <glyph glyph-name="hyphen" unicode="-" horiz-adv-x="360" 
d="M292 270h-224q-10 0 -10 10v40q0 10 10 10h224q10 0 10 -10v-40q0 -10 -10 -10z" />
    <glyph glyph-name="period" unicode="." horiz-adv-x="267" 
d="M169 0h-71q-10 0 -10 10v79q0 10 10 10h71q10 0 10 -10v-79q0 -10 -10 -10z" />
    <glyph glyph-name="slash" unicode="/" horiz-adv-x="390" 
d="M28 -99l271 817q4 11 9 11h49q3 0 4.5 -3t0.5 -8l-271 -817q-4 -11 -10 -11h-48q-3 0 -4.5 3t-0.5 8z" />
    <glyph glyph-name="zero" unicode="0" 
d="M141 340q0 -81 13.5 -159.5t36.5 -105.5q10 -12 26.5 -20t56.5 -8q25 0 46.5 4t38.5 24q23 27 36.5 106t13.5 159t-13.5 159.5t-36.5 106.5q-10 12 -26.5 20t-58.5 8q-24 0 -45.5 -4.5t-37.5 -23.5q-23 -27 -36.5 -106t-13.5 -160zM483 340q0 -90 -20 -182t-58 -128
q-17 -16 -44 -28t-86 -12q-36 0 -69 6.5t-62 33.5q-37 36 -57 128.5t-20 181.5t20 181t57 128q17 16 44.5 28.5t86.5 12.5q36 0 68.5 -7t61.5 -34q38 -36 58 -127.5t20 -181.5z" />
    <glyph glyph-name="one" unicode="1" 
d="M108 652l130 25q15 3 33 3h47q10 0 10 -10v-602q0 -6 6 -6h122q10 0 10 -10v-42q0 -10 -10 -10h-344q-10 0 -10 10v42q0 10 10 10h139q6 0 6 6v545q-2 5 -6 5l-143 -28q-10 0 -10 10v42q0 7 10 10z" />
    <glyph glyph-name="two" unicode="2" 
d="M69 10v56q0 20 4.5 49.5t21.5 61.5t53 68.5t118 91.5q80 54 105 91.5t25 90.5q0 54 -27.5 81.5t-107.5 27.5q-27 0 -70 -5t-70 -12q-9 0 -10 10l-5 39q0 7 9 10q28 8 73 14t78 6q111 0 157.5 -38.5t46.5 -129.5q0 -40 -9.5 -73t-38 -65.5t-107.5 -83.5q-90 -59 -133 -108
t-43 -120q0 -10 8 -10h322q10 0 10 -10v-42q0 -10 -10 -10h-385q-15 0 -15 10z" />
    <glyph glyph-name="three" unicode="3" 
d="M233 399q-4 -4 -4 -8q0 -2 1.5 -4t3.5 -2h22q107 -2 158 -47.5t51 -137.5q0 -107 -53 -158.5t-173 -51.5q-38 0 -84.5 4.5t-74.5 11.5q-6 1 -6 9l6 42q2 8 9 8q26 -6 68 -10t69 -4q67 0 101 15t49 46.5t15 86.5q0 77 -43 105t-156 28h-48q-10 0 -10 10v36q0 8 11 18
q73 64 147.5 137t74.5 82q0 5 -6 5h-271q-9 0 -9 10v40q0 10 10 10h352q10 0 10 -7v-52q0 -7 -8 -16q-26 -30 -92 -94t-120 -112z" />
    <glyph glyph-name="four" unicode="4" 
d="M50 186v40q0 20 5 34q9 26 65 136t145 274q6 10 13 10h53q4 0 7 -3t2 -8q-127 -230 -175.5 -321.5t-48.5 -105.5q0 -8 7 -8h207q6 0 6 6v225q0 10 10 10h49q10 0 10 -10v-225q0 -6 6 -6h93q10 0 10 -10v-38q0 -10 -10 -10h-93q-6 0 -6 -6v-160q0 -10 -10 -10h-49
q-10 0 -10 10v160q0 6 -6 6h-270q-10 0 -10 10z" />
    <glyph glyph-name="five" unicode="5" 
d="M430 619h-241q-9 0 -10 -8l-9 -195q0 -8 6 -8q76 0 128.5 -9t86.5 -30.5t50.5 -59t16.5 -94.5q0 -81 -26 -129.5t-78.5 -72t-144.5 -23.5q-74 0 -131 14q-5 1 -5 9l5 46q0 2 2.5 4.5t5.5 1.5q22 -6 57 -10t61 -4q77 0 113.5 16t51.5 50t15 93q0 45 -13 75.5t-55.5 47
t-163.5 16.5h-34q-14 0 -14 18l12 300q0 3 1 8t10 5h303q10 0 10 -10v-41q0 -10 -10 -10z" />
    <glyph glyph-name="six" unicode="6" 
d="M412 194q0 52 -8 87t-33.5 53.5t-95.5 18.5q-55 0 -83.5 -10.5t-41.5 -41t-13 -107.5q0 -48 8.5 -80.5t34 -49.5t95.5 -17q54 0 82 8.5t41.5 37t13.5 101.5zM178 398q0 -7 8 -7q7 1 26.5 5.5t38.5 7t43 2.5q70 0 110.5 -17t60 -57t19.5 -123q0 -66 -13 -114t-54 -76.5
t-144 -28.5q-86 0 -129 22.5t-61.5 67t-18.5 118.5q0 123 53.5 229.5t166.5 238.5q11 14 24 14h53q7 0 10 -3.5t0 -9.5q-51 -54 -108 -130.5t-82 -127.5q-3 -4 -3 -11z" />
    <glyph glyph-name="seven" unicode="7" 
d="M454 589q-24 -62 -89.5 -185.5t-88.5 -193.5q-12 -36 -20.5 -80.5t-8.5 -117.5q0 -3 -1 -7.5t-10 -4.5h-44q-15 0 -15 10v23q0 65 16.5 127.5t37 111t38.5 85t68 129.5t50 126q0 6 -6 6h-288q-10 0 -10 10v42q0 10 10 10h357q10 0 10 -10v-49q0 -15 -6 -32z" />
    <glyph glyph-name="eight" unicode="8" 
d="M177 364q-30 14 -54.5 41t-34.5 59t-10 60q0 90 47.5 128t149.5 38t149.5 -38t47.5 -128q0 -27 -10 -58t-34 -57t-55 -40q-5 -2 -5 -9q0 -5 6 -8q61 -32 89 -75.5t28 -111.5q0 -63 -22.5 -101t-68 -56t-125.5 -18q-123 0 -169.5 42.5t-46.5 129.5q0 69 28.5 112.5
t88.5 72.5q6 2 6 8q0 7 -5 9zM419 163q0 78 -42 122.5t-102 44.5q-29 0 -55 -11t-46 -32t-31.5 -53t-11.5 -72q0 -34 9 -59.5t37 -41t99 -15.5q51 0 81 9t46 33t16 75zM399 524q0 27 -7 54t-34 41.5t-80 14.5q-66 0 -96.5 -20.5t-30.5 -89.5q0 -42 17 -75.5t44 -50.5t63 -17
q29 0 57.5 14t47.5 50t19 79z" />
    <glyph glyph-name="nine" unicode="9" 
d="M136 485q0 -52 8 -87t33 -53.5t95 -18.5q66 0 93 14.5t36.5 47t9.5 97.5q0 48 -8.5 80.5t-34 48.5t-96.5 16q-54 0 -81.5 -8.5t-41 -36t-13.5 -100.5zM370 281q0 7 -8 7q-7 -1 -32 -6t-42.5 -7t-34.5 -2q-83 0 -122 23t-53.5 64.5t-14.5 110.5q0 66 13 114t54 76.5
t144 28.5q85 0 128.5 -22.5t62 -67t18.5 -118.5q0 -124 -53 -230t-166 -239q-11 -13 -24 -13h-53q-16 0 -10 12q50 55 108 133t82 126q3 5 3 10z" />
    <glyph glyph-name="colon" unicode=":" horiz-adv-x="307" 
d="M191 0h-72q-10 0 -10 10v79q0 10 10 10h72q10 0 10 -10v-79q0 -10 -10 -10zM191 435h-72q-10 0 -10 10v80q0 10 10 10h72q10 0 10 -10v-80q0 -10 -10 -10z" />
    <glyph glyph-name="semicolon" unicode=";" horiz-adv-x="307" 
d="M191 435h-72q-10 0 -10 10v80q0 10 10 10h72q10 0 10 -10v-80q0 -10 -10 -10zM134 -142h-34q-10 0 -10 10l36 255q2 10 10 10h55q10 0 10 -10l-57 -255q-2 -10 -10 -10z" />
    <glyph glyph-name="less" unicode="&#x3c;" 
d="M474 459v-34q0 -17 -14 -22l-315 -128q-6 -4 -6 -12q0 -7 6 -11l315 -129q14 -5 14 -22v-34q0 -4 -3 -7.5t-7 -3.5l-378 162q-11 6 -11 15v59q0 9 11 15l378 163q10 0 10 -11z" />
    <glyph glyph-name="equal" unicode="=" 
d="M469 316h-388q-11 0 -11 10v36q0 10 11 10h388q10 0 10 -10v-36q0 -10 -10 -10zM469 150h-388q-11 0 -11 11v35q0 10 11 10h388q10 0 10 -10v-35q0 -11 -10 -11z" />
    <glyph glyph-name="greater" unicode="&#x3e;" 
d="M75 66v34q0 18 15 22l314 129q6 4 6 11t-6 11l-314 130q-15 6 -15 22v34q0 10 11 10l378 -161q10 -7 10 -16v-58q0 -9 -10 -16l-378 -162q-11 0 -11 10z" />
    <glyph glyph-name="question" unicode="?" horiz-adv-x="405" 
d="M61 612q-7 -1 -9 10l-5 36q0 8 10 11q29 9 69 15t73 6q105 0 141.5 -35.5t36.5 -113.5q0 -37 -9.5 -68.5t-36 -54.5t-78.5 -50q-38 -20 -52.5 -40.5t-17 -47t-2.5 -67.5q0 -5 -0.5 -11.5t-6.5 -6.5h-42q-8 0 -8 23q0 97 19.5 130t55.5 52q70 38 88 61.5t20 45.5t2 32
q0 46 -23.5 68.5t-93.5 22.5q-69 0 -131 -18zM191 0h-72q-10 0 -10 10v79q0 10 10 10h72q10 0 10 -10v-79q0 -10 -10 -10z" />
    <glyph glyph-name="at" unicode="@" horiz-adv-x="846" 
d="M462 110l58 325q6 30 6 39q0 5 -8.5 8t-49.5 3q-34 0 -55.5 -12t-40 -50.5t-35.5 -130.5q-10 -48 -10 -93q0 -68 25 -83t74 -15q16 0 25.5 1.5t10.5 7.5zM781 401q0 -81 -12.5 -144.5t-42.5 -109t-82 -70.5t-128 -25q-13 0 -24.5 3.5t-19.5 10.5t-10 7q-3 0 -14.5 -7
t-25.5 -10.5t-29 -3.5q-69 0 -101.5 37t-32.5 110q0 35 10 95q17 89 38.5 139.5t57.5 75t106 24.5q61 0 93.5 -7.5t32.5 -21.5l-4 -29l-63 -342l-2 -19q0 -11 12 -11q65 0 104.5 29.5t59 92t19.5 175.5q0 138 -53 196.5t-182 58.5q-80 0 -148 -22t-114 -75t-68.5 -134.5
t-22.5 -205.5q0 -115 37.5 -179.5t108.5 -94.5t184 -30q53 0 100.5 6.5t69.5 13.5q10 4 11 -3l5 -37q0 -6 -5 -9q-30 -10 -85 -17t-109 -7q-195 0 -287.5 89.5t-92.5 269.5q0 250 104.5 366t314.5 116q70 0 123 -14t90 -47.5t57 -93t20 -146.5z" />
    <glyph glyph-name="A" unicode="A" horiz-adv-x="532" 
d="M394 184q-1 7 -8 7h-242q-8 0 -10 -7q0 -2 -2.5 -9t-19.5 -69t-25 -96q-4 -10 -13 -10h-55q-4 0 -6 3t-1 7q26 97 94 331t98 329q3 10 12 10h109q9 0 12 -10q30 -102 97 -345t85 -315q1 -4 -1 -7t-6 -3h-61q-10 0 -12 10q-30 124 -45 174zM161 249h209q8 0 8 8
q-46 187 -92 354q-1 2 -2.5 4.5t-15.5 2.5q-4 0 -9.5 -0.5t-7.5 -6.5q-2 -7 -8.5 -28.5t-36 -127t-53.5 -198.5q0 -8 8 -8z" />
    <glyph glyph-name="B" unicode="B" horiz-adv-x="565" 
d="M103 680h180q99 0 149 -39.5t50 -127.5q0 -49 -18.5 -84.5t-66.5 -63.5q-12 -6 -12 -12t9 -9q32 -14 54.5 -34.5t35 -52t12.5 -76.5q0 -58 -23.5 -98t-66.5 -61.5t-101 -21.5h-202q-10 0 -10 10v660q0 10 10 10zM175 373h68q89 0 127 33t38 102q0 63 -33.5 88.5
t-107.5 25.5h-93q-8 0 -8 -7v-234q0 -8 9 -8zM174 58h94q90 0 121.5 32t31.5 98t-38 99t-123 33h-85q-9 0 -9 -9v-245q0 -8 8 -8z" />
    <glyph glyph-name="C" unicode="C" horiz-adv-x="484" 
d="M441 7q-23 -7 -59.5 -12t-70.5 -5q-83 0 -135.5 35t-80 108t-27.5 202q0 83 13.5 148.5t42 111.5t76 70.5t113.5 24.5q78 0 125 -17q5 -2 5 -9l-4 -48q0 -2 -2.5 -4t-5.5 -1q-20 7 -51 12t-58 5q-40 0 -75 -12t-58 -43.5t-34.5 -86.5t-11.5 -152q0 -131 23 -187t62.5 -76
t93.5 -20q24 0 57 4.5t51 9.5q10 2 11 -4l4 -43q1 -4 -0.5 -7t-3.5 -4z" />
    <glyph glyph-name="D" unicode="D" horiz-adv-x="627" 
d="M484 345q0 147 -44 212t-131 65h-137q-6 0 -6 -6v-552q0 -6 5 -6h139q85 0 129.5 68.5t44.5 218.5zM103 680h217q120 0 179.5 -83t59.5 -255t-60.5 -257t-178.5 -85h-217q-10 0 -10 10v660q0 10 10 10z" />
    <glyph glyph-name="E" unicode="E" horiz-adv-x="478" 
d="M93 10v660q0 10 10 10h303q10 0 10 -10v-42q0 -10 -10 -10h-234q-6 0 -6 -6v-225q0 -6 6 -6h221q10 0 10 -10v-38q0 -10 -10 -10h-221q-6 0 -6 -6v-249q0 -6 6 -6h252q10 0 10 -10v-42q0 -10 -10 -10h-321q-10 0 -10 10z" />
    <glyph glyph-name="F" unicode="F" horiz-adv-x="450" 
d="M93 10v660q0 10 10 10h298q10 0 10 -10v-42q0 -10 -10 -10h-229q-6 0 -6 -6v-235q0 -6 6 -6h216q10 0 10 -10v-38q0 -10 -10 -10h-216q-6 0 -6 -6v-297q0 -10 -10 -10h-53q-10 0 -10 10z" />
    <glyph glyph-name="G" unicode="G" horiz-adv-x="581" 
d="M334 50q24 0 51 2.5t40 7.5q7 2 8 8v236q0 6 -6 6h-108q-10 0 -10 10v42q0 10 10 10h175q10 0 10 -10v-333q0 -10 -13 -16q-25 -10 -69 -16.5t-94 -6.5q-88 0 -144.5 35.5t-86 109.5t-29.5 200q0 103 21.5 171.5t57.5 109.5t84 57.5t97 16.5q87 0 148 -17q8 -3 8 -9
l-4 -48q0 -6 -7 -5q-26 7 -64 12t-72 5q-54 0 -91.5 -18.5t-60 -54.5t-32.5 -91t-10 -130q0 -108 20.5 -168t62 -88t108.5 -28z" />
    <glyph glyph-name="H" unicode="H" horiz-adv-x="619" 
d="M452 387v283q0 10 10 10h53q10 0 10 -10v-660q0 -10 -10 -10h-53q-10 0 -10 10v307q0 6 -6 6h-274q-6 0 -6 -6v-307q0 -10 -10 -10h-53q-10 0 -10 10v660q0 10 10 10h53q10 0 10 -10v-283q0 -6 6 -6h274q6 0 6 6z" />
    <glyph glyph-name="I" unicode="I" horiz-adv-x="260" 
d="M156 0h-53q-10 0 -10 10v660q0 10 10 10h53q10 0 10 -10v-660q0 -10 -10 -10z" />
    <glyph glyph-name="J" unicode="J" horiz-adv-x="312" 
d="M149 170v500q0 10 10 10h53q10 0 10 -10v-503q0 -63 -11 -100.5t-39 -57t-89 -19.5q-14 0 -34 2.5t-28 4.5q-7 3 -6 13l4 39q2 8 12 6q20 -5 45 -5q51 0 62 26t11 94z" />
    <glyph glyph-name="K" unicode="K" horiz-adv-x="526" 
d="M175 326q-9 0 -9 -6v-310q0 -10 -10 -10h-53q-10 0 -10 10v660q0 10 10 10h53q10 0 10 -10v-282q0 -6 11 -6q26 0 31 8q40 52 110.5 147.5t95.5 132.5q7 10 14 10h63q10 0 7 -10q-66 -89 -222 -290q-11 -15 -11 -24q0 -8 11 -24q46 -60 130 -174t105 -147q1 -5 -1.5 -8
t-6.5 -3h-63q-10 0 -16 9q-28 43 -99.5 144.5t-116.5 159.5q-2 4 -7 8.5t-26 4.5z" />
    <glyph glyph-name="L" unicode="L" horiz-adv-x="400" 
d="M93 10v660q0 10 10 10h53q10 0 10 -10v-602q0 -6 6 -6h197q10 0 10 -10v-42q0 -10 -10 -10h-266q-10 0 -10 10z" />
    <glyph glyph-name="M" unicode="M" horiz-adv-x="746" 
d="M381 240l141 430q1 4 5.5 7t8.5 3h106q10 0 10 -10v-660q0 -10 -10 -10h-53q-10 0 -10 10v597v6.5t-4 3.5q-1 0 -3.5 -1t-6.5 -11l-150 -434q-1 -3 -4 -8.5t-14 -5.5h-52q-3 0 -8.5 1t-9.5 12l-148 437q-3 10 -9 10q-5 0 -5 -12v-595q0 -10 -10 -10h-52q-10 0 -10 10v660
q0 10 10 10h109q10 0 13 -10l142 -431q3 -9 7 -9t7 10z" />
    <glyph glyph-name="N" unicode="N" horiz-adv-x="635" 
d="M532 0h-101q-2 0 -6 1.5t-9 13.5l-232 575q-1 3 -4 8.5t-9 5.5q-2 0 -4.5 -1t-2.5 -12v-581q0 -10 -10 -10h-51q-10 0 -10 10v660q0 10 10 10h106q10 0 14 -12l228 -568q6 -14 13 -14q6 0 6 8v576q0 10 10 10h52q10 0 10 -10v-660q0 -10 -10 -10z" />
    <glyph glyph-name="O" unicode="O" horiz-adv-x="626" 
d="M144 339q0 -87 12.5 -158.5t34.5 -97.5q13 -15 33.5 -23.5t87.5 -8.5q56 0 81.5 6.5t42.5 25.5q22 26 34 97t12 159t-12 159.5t-34 97.5q-13 15 -34 23.5t-88 8.5q-56 0 -81 -6.5t-42 -25.5q-22 -26 -34.5 -97.5t-12.5 -159.5zM556 340q0 -97 -16 -175t-45 -115
q-21 -27 -57.5 -43.5t-125.5 -16.5q-72 0 -112.5 12.5t-68.5 47.5q-30 38 -46 116t-16 174t16 172.5t46 114.5q29 36 71 49.5t112 13.5t111.5 -13.5t70.5 -49.5q29 -37 44.5 -113.5t15.5 -173.5z" />
    <glyph glyph-name="P" unicode="P" horiz-adv-x="526" 
d="M103 680h170q100 0 150.5 -46t50.5 -150q0 -71 -23 -116.5t-69.5 -68.5t-125.5 -23h-84q-6 0 -6 -6v-260q0 -10 -10 -10h-53q-10 0 -10 10v660q0 10 10 10zM172 334h82q57 0 87 15.5t44 47t14 85.5q0 51 -13.5 81t-43.5 45t-88 15h-82q-6 0 -6 -6v-277q0 -6 6 -6z" />
    <glyph glyph-name="Q" unicode="Q" horiz-adv-x="626" 
d="M556 340q0 -98 -15.5 -174t-45.5 -114q-23 -30 -56 -43t-85 -16q-8 -1 -8 -15q0 -39 7.5 -61t26 -29.5t40.5 -7.5h66q8 0 8 -9l-3 -29q-1 -8 -9 -12q-16 -7 -74 -7q-38 0 -66.5 10.5t-45.5 41t-17 100.5q0 17 -11 18q-50 2 -82 14.5t-55 42.5q-30 38 -46 116t-16 174
t16 172.5t46 114.5q29 36 71 49.5t112 13.5t111.5 -13.5t70.5 -49.5q29 -37 44.5 -113.5t15.5 -173.5zM144 339q0 -87 12.5 -158.5t34.5 -97.5q13 -15 33.5 -23.5t87.5 -8.5q56 0 81.5 6.5t42.5 25.5q22 26 34 97t12 159t-12 159.5t-34 97.5q-13 15 -34 23.5t-88 8.5
q-56 0 -81 -6.5t-42 -25.5q-22 -26 -34.5 -97.5t-12.5 -159.5z" />
    <glyph glyph-name="R" unicode="R" horiz-adv-x="551" 
d="M443 9l-154 265q-3 4 -10 6h-107q-6 0 -6 -6v-264q0 -10 -10 -10h-53q-10 0 -10 10v660q0 10 10 10h169q106 0 155 -46.5t49 -142.5q0 -71 -28 -117t-87 -72q-2 -1 -3.5 -4t-0.5 -5l172 -282q3 -4 1 -7.5t-6 -3.5h-69q-6 0 -12 9zM254 336q74 0 110.5 39t36.5 109
q0 78 -32.5 108.5t-115.5 30.5h-81q-6 0 -6 -6v-275q0 -6 6 -6h82z" />
    <glyph glyph-name="S" unicode="S" horiz-adv-x="461" 
d="M256 623q-64 0 -91.5 -22.5t-27.5 -74.5q0 -38 15 -61q20 -30 121 -103q83 -58 115 -107q22 -35 22 -90q0 -172 -187 -172q-39 0 -86.5 5.5t-81.5 13.5q-5 1 -5 9l4 47q0 2 2 4t6 1q83 -17 157 -17q56 0 87.5 23t31.5 81q0 43 -14 65q-20 29 -117 99q-95 66 -123 112
q-21 35 -21 87q0 79 43 120t151 41q34 0 73.5 -5t61.5 -12q5 -1 5 -9l-4 -45q0 -2 -2.5 -4t-5.5 -1q-20 7 -59.5 11t-69.5 4z" />
    <glyph glyph-name="T" unicode="T" horiz-adv-x="422" 
d="M175 10v602q0 6 -6 6h-142q-10 0 -10 10v42q0 10 10 10h369q10 0 10 -10v-42q0 -10 -10 -10h-142q-6 0 -6 -6v-602q0 -10 -10 -10h-53q-10 0 -10 10z" />
    <glyph glyph-name="U" unicode="U" horiz-adv-x="609" 
d="M523 670v-518q0 -76 -58 -119t-164 -43q-109 0 -162 42.5t-53 119.5v518q0 10 10 10h53q10 0 10 -10v-505q0 -56 32.5 -84t109.5 -28q79 0 114 28t35 85v504q0 10 10 10h53q10 0 10 -10z" />
    <glyph glyph-name="V" unicode="V" horiz-adv-x="520" 
d="M33 680h55q7 0 10 -10q22 -98 73.5 -296.5t80.5 -302.5q3 -9 12 -9q2 0 6 1t6 8q30 115 78.5 309.5t69.5 289.5q3 10 14 10h48q10 0 10 -10q-6 -32 -66 -260.5t-108 -399.5q-3 -10 -17 -10h-91q-9 1 -12 10q-50 173 -111.5 401t-66.5 259q0 4 2.5 7t6.5 3z" />
    <glyph glyph-name="W" unicode="W" horiz-adv-x="832" 
d="M475 650q17 -107 55.5 -297.5t59.5 -273.5q3 -13 13 -13q3 0 7 1t7 13q19 83 57 293t50 297q1 10 14 10h53q7 0 7 -10q-10 -71 -56.5 -305.5t-73.5 -352.5q-3 -12 -14 -12h-103q-9 0 -12 10q-14 56 -54 253t-60 312q-1 10 -9 10q-10 0 -11 -10q-21 -114 -63 -309.5
t-58 -254.5q-1 -3 -3 -7t-10 -4h-104q-10 0 -12 10q-26 123 -71.5 371.5t-49.5 289.5q0 9 9 9h56q7 0 8 -10q11 -86 48 -296t56 -295q3 -13 13 -13q2 0 6 1t7 13q19 77 60.5 269.5t61.5 300.5q2 10 10 10h96q10 0 10 -10z" />
    <glyph glyph-name="X" unicode="X" horiz-adv-x="494" 
d="M245 303q-2 0 -5 -2t-4 -4q-120 -240 -141 -288q-4 -9 -11 -9h-57q-4 0 -6.5 3t-0.5 8q13 31 74 149t91 173q8 15 8 24t-9 24q-32 54 -87 157.5t-69 132.5q-3 9 7 9h62q7 0 11 -10q12 -28 50.5 -105.5t79.5 -154.5q4 -7 10 -7t10 7q24 46 68 135t60 125q5 10 11 10h59
q4 0 6 -3t1 -7l-9 -18t-51 -98t-94 -173q-10 -18 -10 -25q0 -8 9 -23q33 -61 94 -177t74 -145q2 -5 -0.5 -8t-6.5 -3h-57q-9 0 -14 9q-2 4 -7.5 16.5t-45.5 95.5t-89 176q-3 6 -11 6z" />
    <glyph glyph-name="Y" unicode="Y" horiz-adv-x="489" 
d="M410 669q6 11 15 11h54q8 0 5 -10q-3 -6 -12.5 -26t-56 -113.5t-102.5 -191.5q-25 -43 -30.5 -54.5t-5.5 -21.5v-253q0 -10 -10 -10h-53q-10 0 -10 10v254q0 4 -2 13t-30 59q-34 61 -94 179t-74 155q-1 4 1 7t6 3h57q10 0 14 -11q24 -56 73 -160t73 -149q3 -5 6.5 -10.5
t9.5 -5.5q2 0 4.5 1t11.5 15q26 44 74 144t76 165z" />
    <glyph glyph-name="Z" unicode="Z" horiz-adv-x="451" 
d="M400 0h-362q-10 0 -10 10v58q0 8 14 34l282 484q8 14 8 23t-10 9h-248q-10 0 -10 10v42q0 10 10 10h328q10 0 10 -10v-52q0 -14 -11 -34l-290 -498q-3 -6 -3 -15q0 -8 5 -8h288q10 0 10 -10v-43q0 -10 -11 -10z" />
    <glyph glyph-name="bracketleft" unicode="[" horiz-adv-x="360" 
d="M92 -154v896q0 10 10 10h179q10 0 10 -10v-36q0 -10 -10 -10h-116q-6 0 -6 -6v-792q0 -6 6 -6h116q10 0 10 -10v-36q0 -10 -10 -10h-179q-10 0 -10 10z" />
    <glyph glyph-name="backslash" unicode="\" horiz-adv-x="390" 
d="M91 718l271 -817q1 -5 -0.5 -8t-4.5 -3h-48q-7 0 -10 11l-271 817q-1 5 0.5 8t4.5 3h48q7 0 10 -11z" />
    <glyph glyph-name="bracketright" unicode="]" horiz-adv-x="360" 
d="M268 742v-896q0 -10 -10 -10h-179q-10 0 -10 10v36q0 10 10 10h116q6 0 6 6v792q0 6 -6 6h-116q-10 0 -10 10v36q0 10 10 10h179q10 0 10 -10z" />
    <glyph glyph-name="asciicircum" unicode="^" 
d="M93 265l157 432h47l159 -432h-55l-70 196q-25 68 -56 176h-2q-18 -62 -57 -175l-69 -197h-54z" />
    <glyph glyph-name="underscore" unicode="_" horiz-adv-x="500" 
d="M0 -82h500v-45h-500v45z" />
    <glyph glyph-name="grave" unicode="`" horiz-adv-x="500" 
d="M292 610h-22q-4 0 -10.5 1t-15.5 15l-113 176q0 10 10 10h49q8 0 15 -10l95 -184q2 -8 -8 -8z" />
    <glyph glyph-name="a" unicode="a" horiz-adv-x="528" 
d="M249 487q-61 0 -125 -12q-11 -2 -12 6l-6 33q-2 10 6 13q62 18 150 18q93 0 134.5 -38t41.5 -125v-361q0 -12 -12 -16q-52 -15 -147 -15q-78 0 -123.5 12t-68.5 42t-23 92q0 58 14.5 88.5t50 48t101.5 23.5l134 13q6 2 6 7v54q0 66 -26 91.5t-95 25.5zM370 56v189
q0 6 -6 6h-110q-45 0 -70 -8.5t-37 -30t-12 -68.5q0 -40 10 -61.5t37 -31t92 -9.5q64 0 86 6q10 3 10 8z" />
    <glyph glyph-name="b" unicode="b" horiz-adv-x="560" 
d="M263 488q-57 0 -95 -10q-9 -3 -9 -15v-398q0 -8 10 -11q32 -8 89 -8q49 0 84 14t55.5 57t20.5 157q0 78 -12 123t-43 68t-100 23zM258 -10q-84 0 -160 19q-10 3 -10 10v706q0 10 10 10h51q10 0 10 -10v-181q0 -8 7 -8q2 0 38.5 4.5t66.5 4.5q123 0 172 -60t49 -206
q0 -112 -24 -172t-74.5 -88.5t-135.5 -28.5z" />
    <glyph glyph-name="c" unicode="c" horiz-adv-x="418" 
d="M380 4q-45 -14 -100 -14q-57 0 -98 17.5t-66.5 52.5t-37 86t-11.5 118q0 101 25 161.5t71.5 90t118.5 29.5q61 0 96 -14q4 -1 4 -7l-4 -43q-1 -5 -7 -4q-33 12 -83 12q-51 0 -82.5 -21t-48 -68t-16.5 -137q0 -113 32.5 -164.5t112.5 -51.5q40 0 84 12q7 2 8 -3l5 -44
q1 -7 -3 -8z" />
    <glyph glyph-name="d" unicode="d" horiz-adv-x="560" 
d="M306 -10q-88 0 -139 26t-75 83t-24 168q0 110 27 168.5t77.5 84t132.5 25.5q29 0 89 -9q7 0 7 8v181q0 10 10 10h51q10 0 10 -10v-706q0 -8 -10 -11q-70 -18 -156 -18zM401 69v395q0 12 -8 14q-14 4 -40.5 7t-47.5 3q-61 0 -95.5 -17.5t-51 -61.5t-16.5 -142
q0 -81 11.5 -127t44.5 -70t108 -24q55 0 86 9q9 3 9 14z" />
    <glyph glyph-name="e" unicode="e" horiz-adv-x="540" 
d="M140 310q0 -7 6 -7h255q7 0 9.5 6t2.5 29q0 79 -28.5 115.5t-101.5 36.5q-71 0 -107 -43.5t-36 -136.5zM460 17q-29 -12 -69.5 -19.5t-80.5 -7.5q-123 0 -183 64.5t-60 213.5q0 61 11 111.5t36 87.5t67 57.5t102 20.5q74 0 116.5 -25.5t61 -73t18.5 -130.5v-22
q0 -21 -4.5 -33t-21.5 -12h-307q-6 0 -6 -7q0 -106 42.5 -150.5t141.5 -44.5q30 0 66 7t59 17q13 5 14 -5l4 -37q0 -8 -7 -12z" />
    <glyph glyph-name="f" unicode="f" horiz-adv-x="316" 
d="M188 587v-46q0 -6 6 -6h97q10 0 10 -10v-36q0 -10 -10 -10h-97q-6 0 -6 -6v-463q0 -10 -10 -10h-51q-10 0 -10 10v463q0 6 -6 6h-81q-10 0 -10 10v36q0 10 10 10h81q6 0 6 6v49q0 43 11 74.5t41 51t83 19.5q46 0 70 -7q9 -3 7 -13l-4 -33q-2 -8 -12 -6q-26 6 -57 6
q-40 0 -54 -22.5t-14 -72.5z" />
    <glyph glyph-name="g" unicode="g" horiz-adv-x="560" 
d="M473 516v-509q0 -96 -43 -141.5t-163 -45.5q-39 0 -90 6t-81 16q-7 3 -5 12l6 35q1 2 4 5t10 1q26 -9 71 -14.5t77 -5.5q68 0 96.5 15.5t38 47.5t9.5 91q0 7 -7 7q-44 -7 -93 -7q-101 0 -148.5 28.5t-66 82.5t-18.5 144q0 103 26.5 158t76 79t128.5 24q80 0 162 -17
q10 -3 10 -12zM302 83q67 0 92 9q8 2 8 14v361q0 10 -9 12q-36 9 -93 9q-58 0 -90.5 -15.5t-49 -56t-16.5 -129.5q0 -77 10.5 -119t42 -63.5t105.5 -21.5z" />
    <glyph glyph-name="h" unicode="h" horiz-adv-x="562" 
d="M88 10v715q0 10 10 10h51q10 0 10 -10v-182q0 -9 9 -9q73 11 121 11q66 0 106 -13.5t62 -49t22 -110.5v-362q0 -10 -10 -10h-51q-10 0 -10 10v353q0 46 -9.5 72t-36 39.5t-86.5 13.5q-66 0 -107 -9q-10 -3 -10 -11v-458q0 -10 -10 -10h-51q-10 0 -10 10z" />
    <glyph glyph-name="i" unicode="i" horiz-adv-x="264" 
d="M157 0h-51q-10 0 -10 10v515q0 10 10 10h51q10 0 10 -10v-515q0 -10 -10 -10zM163 649h-62q-10 0 -10 10v65q0 10 10 10h62q10 0 10 -10v-65q0 -10 -10 -10z" />
    <glyph glyph-name="j" unicode="j" horiz-adv-x="264" 
d="M164 649h-62q-10 0 -10 10v65q0 10 10 10h62q10 0 10 -10v-65q0 -10 -10 -10zM97 -9v534q0 10 10 10h51q10 0 10 -10v-570q-1 -41 -10.5 -74t-38.5 -49t-84 -16q-43 0 -69 8q-7 2 -7 7l8 42q0 1 2.5 3t6.5 1q28 -6 48 -6q22 0 39.5 5t25.5 29.5t8 85.5z" />
    <glyph glyph-name="k" unicode="k" horiz-adv-x="485" 
d="M176 322q17 0 24 7q94 99 173 197q8 9 19 9h59q4 0 7 -3t0 -8q-2 -2 -9 -11t-46 -52t-142 -151q-10 -9 -10 -16q0 -6 10 -18q4 -5 16.5 -20t76 -93.5t117.5 -150.5q4 -4 1.5 -8t-9.5 -4h-59q-12 0 -17 7l-8 11q-41 56 -98 131t-83 106q-6 8 -21 8q-7 0 -13 -1t-6 -8v-244
q0 -10 -10 -10h-51q-10 0 -10 10v715q0 10 9 10h53q9 0 9 -10v-394q0 -9 18 -9z" />
    <glyph glyph-name="l" unicode="l" horiz-adv-x="276" 
d="M246 -2q-30 -7 -61 -7q-57 0 -78 28t-21 101v605q0 10 10 10h51q10 0 10 -10v-605q0 -44 9.5 -59t39.5 -15h41q9 0 9 -8l-2 -31q-2 -8 -8 -9z" />
    <glyph glyph-name="m" unicode="m" horiz-adv-x="845" 
d="M456 466v-456q0 -10 -10 -10h-51q-10 0 -10 10v414q0 36 -26 50t-84 14q-67 0 -106 -9q-10 -3 -10 -11v-458q0 -10 -10 -10h-51q-10 0 -10 10v505q0 10 10 11q29 6 86 12.5t92 6.5q99 0 139 -26q4 -2 8 0q27 10 66.5 18t83.5 8q189 0 189 -153v-382q0 -10 -10 -10h-51
q-10 0 -10 10v372q0 59 -34.5 82.5t-95.5 23.5q-56 0 -93 -10q-12 -3 -12 -12z" />
    <glyph glyph-name="n" unicode="n" horiz-adv-x="561" 
d="M274 545q75 0 118 -13.5t65 -48.5t22 -111v-362q0 -10 -10 -10h-51q-10 0 -10 10v355q0 45 -10 71t-37 39t-88 13q-64 0 -104 -9q-10 -3 -10 -11v-458q0 -10 -10 -10h-51q-10 0 -10 10v506q0 8 10 10q37 7 87.5 13t88.5 6z" />
    <glyph glyph-name="o" unicode="o" horiz-adv-x="571" 
d="M139 271q0 -68 11.5 -121t33.5 -75q15 -15 35.5 -21t64.5 -6q35 0 60.5 4.5t43.5 22.5q21 22 32.5 75t11.5 121t-11 118t-33 72q-14 15 -35 21t-66 6q-35 0 -60.5 -4.5t-43.5 -22.5q-21 -22 -32.5 -72.5t-11.5 -117.5zM504 272q0 -35 -5.5 -79.5t-19.5 -86t-34 -64.5
q-25 -28 -63.5 -40t-97.5 -12t-95.5 12t-61.5 40q-27 31 -43.5 94t-16.5 136q0 74 16 132t44 89q25 28 62.5 40t96.5 12q44 0 86.5 -9t73.5 -43q27 -31 42.5 -89t15.5 -132z" />
    <glyph glyph-name="p" unicode="p" horiz-adv-x="560" 
d="M254 545q90 0 140.5 -22.5t74 -75.5t23.5 -163q0 -112 -26 -171t-76.5 -86t-132.5 -27q-28 0 -91 6q-7 1 -7 -7v-169q0 -10 -10 -10h-51q-10 0 -10 10v686q0 9 10 10q95 19 156 19zM159 464v-387q0 -12 9 -14q42 -7 86 -7q73 0 106 25t45.5 73t12.5 130q0 78 -12.5 120.5
t-45 63t-106.5 20.5q-57 0 -86 -9q-9 -3 -9 -15z" />
    <glyph glyph-name="q" unicode="q" horiz-adv-x="560" 
d="M298 55q53 0 95 11q9 2 9 17v386q0 8 -10 10q-36 9 -91 9q-68 0 -100 -24.5t-44.5 -69.5t-12.5 -119q0 -91 15 -135.5t48 -64.5t91 -20zM311 545q69 0 152 -17q10 -3 10 -10v-688q0 -10 -10 -10h-51q-10 0 -10 10v170q0 9 -5 9q-2 0 -38.5 -4.5t-73.5 -4.5
q-60 0 -101.5 16t-66.5 49.5t-36 85t-11 123.5q0 102 25.5 159t77.5 84.5t138 27.5z" />
    <glyph glyph-name="r" unicode="r" horiz-adv-x="339" 
d="M88 516q0 8 10 10q85 19 147 19q53 0 80 -5q6 -1 6 -8l-5 -46q-2 -6 -7 -5q-38 7 -75 7q-17 0 -39.5 -2.5t-36.5 -7.5q-9 -3 -9 -11v-457q0 -5 -3 -8t-8 -2h-50q-10 0 -10 10v506z" />
    <glyph glyph-name="s" unicode="s" horiz-adv-x="396" 
d="M175 -10q-69 0 -121 10q-5 2 -5 7l4 47q0 2 2.5 3.5t4.5 0.5q55 -11 105 -11q64 0 88 15.5t24 63.5q0 35 -19.5 58.5t-84.5 70.5q-53 39 -77 62t-32 47t-8 49q0 68 40 100t125 32q66 0 109 -8q5 -2 5 -7l-4 -47q0 -2 -2.5 -3.5t-4.5 -0.5q-47 9 -93 9q-41 0 -65 -7
t-33 -23.5t-9 -38.5q0 -18 6.5 -36t26.5 -36t67 -50q84 -58 102.5 -93.5t18.5 -75.5q0 -75 -39.5 -106.5t-130.5 -31.5z" />
    <glyph glyph-name="t" unicode="t" horiz-adv-x="315" 
d="M276 -2q-30 -7 -64 -7q-53 0 -75 26.5t-22 73.5v382q0 6 -6 6h-82q-10 0 -10 10v36q0 10 10 10h82q6 0 6 6v125q0 10 10 10h51q10 0 10 -10v-125q0 -6 6 -6h93q10 0 10 -10v-36q0 -10 -10 -10h-93q-6 0 -6 -6v-369q0 -26 7 -42t43 -16h40q10 0 10 -9l-1 -28q0 -9 -9 -11z
" />
    <glyph glyph-name="u" unicode="u" horiz-adv-x="561" 
d="M290 -10q-89 0 -131.5 18.5t-59.5 55.5t-17 101v360q0 10 10 10h51q10 0 10 -10v-352q0 -45 11.5 -74t43 -40t82.5 -11q62 0 102 9q10 3 10 11v457q0 10 10 10h51q10 0 10 -10v-506q0 -8 -10 -10q-38 -8 -88.5 -13.5t-84.5 -5.5z" />
    <glyph glyph-name="v" unicode="v" horiz-adv-x="473" 
d="M294 7q-3 -7 -12 -7h-95q-6 2 -8 7q-27 74 -85.5 269t-71.5 250q0 9 9 9h56q7 0 9 -9q25 -99 66.5 -245.5t64.5 -215.5q1 -6 12 -6q10 0 12 6q24 71 64.5 218t63.5 243q2 9 13 9h51q8 0 8 -10q-10 -50 -69.5 -245.5t-87.5 -272.5z" />
    <glyph glyph-name="w" unicode="w" horiz-adv-x="821" 
d="M650 8q-3 -8 -10 -8h-96q-6 0 -9 8q-2 6 -7.5 27.5t-40 153t-67.5 276.5q-1 6 -9 6q-9 0 -10 -6q-2 -9 -9.5 -38.5t-43.5 -165.5t-71 -253q-2 -8 -12 -8h-93q-6 0 -8 8q-22 69 -72.5 263.5t-62.5 254.5q0 9 7 9h61q5 0 7 -9t8 -37t33 -148t67 -276q2 -6 11 -6t10 6
q2 7 8.5 29.5t39.5 147t70 284.5q3 9 10 9h98q7 0 9 -9t8.5 -37t36.5 -150.5t70 -273.5q1 -6 10 -6t11 6q24 83 60.5 228.5t54.5 232.5q3 9 10 9h56q1 0 3.5 -2t2.5 -8q-9 -47 -62.5 -242t-78.5 -275z" />
    <glyph glyph-name="x" unicode="x" horiz-adv-x="498" 
d="M247 235q-6 0 -9 -5q-47 -72 -135 -223q-1 -2 -4 -4.5t-6 -2.5h-60q-7 0 -6 9q11 21 68.5 109t92.5 140q3 4 6.5 11.5t3.5 11.5q0 7 -10 21q-126 192 -143 225q0 1 0.5 4.5t6.5 3.5h58q12 0 14 -8q41 -76 116 -196q5 -8 9 -8q6 0 11 8q80 129 117 196q5 8 14 8h56
q7 0 6 -7q-2 -3 -8.5 -14.5t-44 -71t-90.5 -139.5q-10 -14 -10 -21q0 -9 9 -21q37 -57 93 -144.5t67 -108.5q1 -8 -6 -8h-59q-9 0 -13 7q-2 3 -9 15.5t-50.5 85t-75.5 122.5q-3 5 -9 5z" />
    <glyph glyph-name="y" unicode="y" horiz-adv-x="469" 
d="M226 5q0 4 -8 4h-19q-16 0 -21 12q-30 81 -87.5 267.5t-68.5 237.5q0 9 9 9h57q7 0 9 -9q20 -90 61.5 -234t68.5 -221q2 -6 11 -6t13 8q59 177 125 453q2 9 13 9h50q8 0 8 -10q-9 -47 -64.5 -232.5t-83.5 -264.5q-27 -78 -50.5 -121t-57 -65t-94.5 -22q-31 0 -46 4
q-6 1 -6 10v32q1 8 8 8l23 -1q34 0 58 6t39.5 22t27 38.5t21.5 50.5q4 9 4 15z" />
    <glyph glyph-name="z" unicode="z" horiz-adv-x="446" 
d="M393 0h-336q-10 0 -10 10v50q0 14 11 29l255 361q8 12 8 22q0 7 -9 7h-234q-10 0 -10 10v36q0 10 10 10h307q10 0 10 -10v-44q0 -21 -8 -32l-262 -372q-3 -4 -3 -12q0 -7 5 -7h267q10 0 10 -10v-38q0 -10 -11 -10z" />
    <glyph glyph-name="braceleft" unicode="{" horiz-adv-x="360" 
d="M129 294q0 -3 6 -8q32 -24 32 -80q0 -33 -6 -126.5t-6 -107.5q0 -43 24 -62t99 -19q11 0 11 -10v-35q0 -10 -11 -10q-96 0 -140.5 28.5t-44.5 96.5q0 19 7 124.5t7 129.5q0 25 -16.5 38t-44.5 13q-11 0 -11 10v36q0 10 11 10q28 0 44.5 13t16.5 38q0 24 -7 129.5
t-7 124.5q0 68 44.5 96.5t140.5 28.5q11 0 11 -10v-36q0 -10 -11 -10q-65 0 -94 -15t-29 -65q0 -2 0.5 -11t6 -105t5.5 -118q0 -56 -32 -80q-6 -4 -6 -8z" />
    <glyph glyph-name="bar" unicode="|" horiz-adv-x="280" 
d="M115 -214v1000h50v-1000h-50z" />
    <glyph glyph-name="braceright" unicode="}" horiz-adv-x="360" 
d="M230 294q0 4 -6 8q-16 12 -23.5 31t-7.5 49q0 33 5.5 126.5t5.5 107.5q0 43 -23.5 61.5t-98.5 18.5q-11 0 -11 10v36q0 10 11 10q96 0 140.5 -28.5t44.5 -96.5q0 -19 -7 -124.5t-7 -129.5q0 -25 16.5 -38t44.5 -13q11 0 11 -10v-36q0 -10 -11 -10q-28 0 -44.5 -13
t-16.5 -38q0 -24 7 -129.5t7 -124.5q0 -68 -44.5 -96.5t-140.5 -28.5q-11 0 -11 10v35q0 10 11 10q64 0 93 15.5t29 65.5v11t-5.5 105t-5.5 118q0 23 5.5 44t25.5 36q6 5 6 8z" />
    <glyph glyph-name="asciitilde" unicode="~" 
d="M291 289q52 -35 80 -35q24 0 38 15t22 48l2.5 7.5t7.5 4.5l39 -9q4 -1 4 -8q-1 -24 -15.5 -52t-39.5 -45.5t-59 -17.5q-20 0 -43 7.5t-70 38.5q-21 15 -40.5 25.5t-37.5 10.5q-49 0 -63 -61q-2 -12 -10 -12l-37 9q-4 1 -4 6q0 22 14.5 50t39 46.5t58.5 18.5q22 0 44 -7
t70 -40z" />
    <glyph glyph-name="uni00A0" unicode="&#xa0;" horiz-adv-x="200" 
 />
    <glyph glyph-name="exclamdown" unicode="&#xa1;" horiz-adv-x="280" 
d="M124 325h34q10 0 10 -10l16 -450q0 -10 -10 -10h-67q-10 0 -10 10l17 450q0 10 10 10zM108 535h71q10 0 10 -10v-80q0 -10 -10 -10h-71q-10 0 -10 10v80q0 10 10 10z" />
    <glyph glyph-name="cent" unicode="&#xa2;" 
d="M326 -15v-72q0 -10 -10 -10h-41q-10 0 -10 10v75l-2 6q-88 13 -127 80t-39 190q0 121 39.5 191.5t126.5 85.5l2 5v79q0 10 10 10h41q10 0 10 -10v-74q0 -4 3 -6q22 -1 46.5 -5.5t34.5 -9.5q3 -2 3 -6l-5 -43q0 -2 -2 -3.5t-6 -0.5q-28 12 -82 12q-51 0 -82.5 -21t-48 -68
t-16.5 -137q0 -113 32.5 -164.5t112.5 -51.5q40 0 86 13q1 1 3.5 -0.5t2.5 -3.5l5 -44q1 -7 -3 -8q-36 -12 -82 -13q-2 -1 -2 -6z" />
    <glyph glyph-name="sterling" unicode="&#xa3;" 
d="M72 67q48 33 65.5 88t17.5 177q0 3 -1 7t-12 4h-58q-10 0 -10 10v32q0 10 10 10h59q3 0 7.5 1t4.5 15q0 113 17 169.5t56.5 83t110.5 26.5q63 0 117 -14q5 -1 5 -9l-6 -44q-2 -6 -8 -5q-51 12 -108 12q-38 0 -63.5 -15t-38 -55t-12.5 -145q0 -7 0.5 -13.5t7.5 -6.5h172
q10 0 10 -10v-32q0 -10 -10 -10h-172q-2 0 -5.5 -0.5t-3.5 -8.5q0 -92 -13.5 -150.5t-39.5 -94.5q-13 -16 -14 -18t-1 -3q0 -2 1 -4t15 -2h307q4 0 7 -3.5t3 -7.5v-41q0 -10 -10 -10h-405q-10 0 -10 10v44q0 8 8 13z" />
    <glyph glyph-name="currency" unicode="&#xa4;" 
d="M257 507q49 0 91 -29l87 88l38 -38l-86 -88q10 -15 18.5 -38t8.5 -51q0 -49 -26 -89l85 -87l-39 -40l-86 87q-40 -29 -90 -29q-23 0 -47.5 8t-44.5 22l-87 -88l-38 39l87 88q-27 40 -27 89q0 21 7 44.5t19 42.5l-86 88l39 40l87 -87q19 13 43.5 20.5t46.5 7.5zM258 245
q19 0 42.5 10t40 36t16.5 59q0 32 -16.5 58t-40 36t-42.5 10q-20 0 -43.5 -10t-40.5 -36t-17 -58q0 -33 16.5 -59t40.5 -36t44 -10z" />
    <glyph glyph-name="yen" unicode="&#xa5;" 
d="M439 669q6 11 17 11h54q7 0 4 -10q-80 -138 -171 -284q-23 -36 -29.5 -47.5t-6.5 -19.5q0 -6 6 -6h142q10 0 10 -10v-30q0 -10 -10 -10h-143q-6 0 -6 -6v-65q0 -4 6 -4h143q10 0 10 -10v-31q0 -10 -10 -10h-143q-2 0 -4 -1.5t-2 -3.5v-122q0 -10 -10 -10h-49
q-10 0 -10 10v121q0 6 -6 6h-146q-10 0 -10 10v31q0 10 10 10h146q5 0 6 4v65q0 6 -6 6h-146q-10 0 -10 10v30q0 10 10 10h145q6 0 6 6q0 8 -3.5 17t-27.5 47q-3 5 -14 23t-61 100.5t-95 163.5q-2 4 0.5 7t6.5 3h59q9 0 14 -11q25 -51 68 -129.5t73 -128.5q10 -18 19 -18
q10 0 21 18q27 44 70 122.5t73 135.5z" />
    <glyph glyph-name="brokenbar" unicode="&#xa6;" horiz-adv-x="276" 
d="M113 403v383h50v-383h-50zM113 -214v382h50v-382h-50z" />
    <glyph glyph-name="section" unicode="&#xa7;" horiz-adv-x="545" 
d="M399 201q0 34 -9.5 58.5t-45 55t-102.5 75.5q-9 6 -14 6q-4 0 -15 -7q-33 -25 -50.5 -52t-17.5 -66q0 -34 12 -54t35 -40.5t96 -71.5q30 -22 42 -22q6 0 13 6q26 21 41 52t15 60zM119 555q0 68 40 101.5t141 33.5q33 0 70 -4t58 -11q5 -2 5 -9l-4 -43q0 -2 -2.5 -4
t-5.5 -1q-19 6 -52.5 9.5t-64.5 3.5q-64 0 -89 -14.5t-25 -56.5q0 -35 25.5 -63.5t109.5 -83.5q74 -49 108 -92.5t34 -115.5q0 -90 -83 -151q-9 -7 -9 -11q0 -6 11 -18q17 -20 25.5 -41.5t8.5 -51.5q0 -153 -187 -153q-83 0 -144 13q-7 2 -7 10l5 44q1 8 10 7
q66 -13 139 -13q52 0 82 18.5t30 64.5q0 37 -22 66t-120 94q-58 39 -86 70t-36 58.5t-8 52.5q0 47 22 83.5t69 72.5q12 9 12 14t-14 19q-46 43 -46 102z" />
    <glyph glyph-name="dieresis" unicode="&#xa8;" horiz-adv-x="500" 
d="M182 649h-56q-10 0 -10 10v59q0 10 10 10h56q10 0 10 -10v-59q0 -10 -10 -10zM374 649h-56q-10 0 -10 10v59q0 10 10 10h56q10 0 10 -10v-59q0 -10 -10 -10z" />
    <glyph glyph-name="copyright" unicode="&#xa9;" horiz-adv-x="840" 
d="M107 333q0 126 33 203t100 114t184 37q74 0 131 -17t96.5 -56.5t60.5 -105.5t21 -161q0 -104 -22.5 -175t-64 -111.5t-97.5 -57.5t-126 -17q-72 0 -129.5 17t-99 56t-64.5 107.5t-23 166.5zM687 341q0 155 -62.5 230t-201.5 75q-150 0 -210.5 -76t-60.5 -229
q0 -158 65 -235.5t206 -77.5q93 0 149 30.5t85.5 98.5t29.5 184zM447 180q38 0 82 11q9 0 9 -3l5 -47q0 -5 -3 -7q-45 -12 -99 -12q-96 0 -141 49t-45 166q0 75 18 122t57.5 71.5t112.5 24.5q57 0 92 -13q4 -1 4 -6l-4 -44q0 -2 -1.5 -3.5t-3.5 -0.5q-32 10 -84 10
q-43 0 -68 -11t-38.5 -43.5t-13.5 -107.5q0 -46 8 -83t34.5 -55t78.5 -18z" />
    <glyph glyph-name="ordfeminine" unicode="&#xaa;" horiz-adv-x="376" 
d="M177 628q-47 0 -84 -8q-10 -2 -11 4l-4 33q0 9 4 10q44 13 107 13q69 0 99 -26.5t30 -87.5v-252q0 -11 -33 -17t-84 -6q-57 0 -89.5 8.5t-48.5 29t-16 64.5q0 61 27 84.5t90 30.5l91 9q4 2 4 7v35q0 39 -18 54t-64 15zM259 344v121q0 3 -4 4h-69q-45 0 -62 -14.5
t-17 -54.5q0 -38 17.5 -51t70.5 -13q64 0 64 8z" />
    <glyph glyph-name="guillemotleft" unicode="&#xab;" horiz-adv-x="510" 
d="M246 250v43q0 8 10 18l173 173q4 2 8 -0.5t4 -7.5v-36q0 -5 -0.5 -12t-10.5 -17l-120 -129q-3 -4 -3 -10t3 -11l120 -128q3 -3 7 -8.5t4 -20.5v-37q0 -6 -3.5 -8.5t-8.5 0.5l-173 173q-10 10 -10 18zM66 250v43q0 8 10 18l173 173q4 2 8 -0.5t4 -7.5v-36q0 -5 -0.5 -12
t-10.5 -17l-120 -129q-3 -4 -3 -10t3 -11l120 -128q3 -3 7 -8.5t4 -20.5v-37q0 -6 -3.5 -8.5t-8.5 0.5l-173 173q-10 10 -10 18z" />
    <glyph glyph-name="logicalnot" unicode="&#xac;" 
d="M467 414q6 0 11.5 -4.5t5.5 -10.5v-236q0 -10 -11 -10h-36q-10 0 -10 10v189q0 6 -7 6h-347q-10 0 -10 11v35q0 10 10 10h394z" />
    <glyph glyph-name="uni00AD" unicode="&#xad;" horiz-adv-x="360" 
d="M292 270h-224q-10 0 -10 10v40q0 10 10 10h224q10 0 10 -10v-40q0 -10 -10 -10z" />
    <glyph glyph-name="registered" unicode="&#xae;" horiz-adv-x="446" 
d="M57 507q0 93 37 140.5t132 47.5q61 0 96 -20t52 -59t17 -102q0 -94 -37.5 -142.5t-127.5 -48.5q-92 0 -130.5 47t-38.5 137zM356 512q0 77 -28 115.5t-102 38.5q-71 0 -102.5 -33.5t-31.5 -120.5q0 -79 30 -119t104 -40q76 0 103 39.5t27 119.5zM272 402l-47 82l-5 3h-28
l-2 -3v-82q-2 -4 -5 -4h-30l-4 4v219l4 4h59q44 0 65 -13.5t21 -47.5q0 -22 -8 -37.5t-28 -28.5q-1 -1 -2 -2.5t0 -2.5l55 -90q1 -2 0.5 -3.5t-2.5 -1.5h-37q-3 0 -6 4zM218 516q41 0 41 42q0 15 -6 25.5t-35 10.5h-26l-2 -3v-72l2 -3h26z" />
    <glyph glyph-name="macron" unicode="&#xaf;" horiz-adv-x="500" 
d="M372 657h-244q-10 0 -10 10v36q0 10 10 10h244q10 0 10 -10v-36q0 -10 -10 -10z" />
    <glyph glyph-name="degree" unicode="&#xb0;" horiz-adv-x="386" 
d="M196 717q58 0 101 -43.5t43 -102.5q0 -61 -43 -104.5t-103 -43.5q-61 0 -104 43t-43 106q0 22 7.5 46t26 46t48 37.5t67.5 15.5zM192 674q-19 0 -42.5 -10.5t-40.5 -36.5t-17 -56q0 -20 10 -44.5t35.5 -42t56.5 -17.5q20 0 43.5 10.5t40.5 36.5t17 57q0 20 -10 44.5
t-35.5 41.5t-57.5 17z" />
    <glyph glyph-name="plusminus" unicode="&#xb1;" 
d="M245 369v166q0 10 10 10h39q4 0 7.5 -3t3.5 -7v-166q0 -7 6 -7h161q11 0 11 -10v-35q0 -11 -11 -11h-161q-6 0 -6 -6v-168q0 -4 -3.5 -7t-7.5 -3h-39q-10 0 -10 10v168q0 6 -6 6h-164q-10 0 -10 11v35q0 10 10 10h164q6 0 6 7zM474 21h-399q-10 0 -10 11v35q0 10 10 10
h399q11 0 11 -10v-35q0 -11 -11 -11z" />
    <glyph glyph-name="uni00B2" unicode="&#xb2;" horiz-adv-x="340" 
d="M37 434v42q0 50 27 86.5t92 81.5q37 26 58 47.5t21 59.5q0 32 -18.5 44.5t-61.5 12.5q-19 0 -48 -3.5t-43 -7.5q-6 0 -6 6l-4 41q0 4 6 6q7 2 34.5 7.5t64.5 5.5q70 0 105 -23t35 -82q0 -49 -21.5 -80.5t-75.5 -66.5q-61 -40 -82 -66.5t-21 -58.5q0 -5 6 -5h189q7 0 7 -6
v-41q0 -2 -2.5 -4t-4.5 -2h-247q-10 0 -10 6z" />
    <glyph glyph-name="uni00B3" unicode="&#xb3;" horiz-adv-x="340" 
d="M158 681l-3 -6q0 -3 3 -4q71 -1 105.5 -29.5t34.5 -83.5q0 -68 -37 -102t-121 -34q-48 0 -95 10q-6 2 -6 7l3 38q0 2 2.5 4t4.5 2q42 -8 83 -8q53 0 76.5 18t23.5 66q0 38 -28 54t-95 16h-29q-2 0 -4.5 2t-2.5 4v33q0 4 7 11q44 36 87.5 76.5t43.5 45.5q0 3 -4 4h-160
q-2 0 -3.5 2t-1.5 4v39q0 6 6 6h236q6 0 6 -4v-45q0 -5 -8 -14q-49 -51 -124 -112z" />
    <glyph glyph-name="acute" unicode="&#xb4;" horiz-adv-x="500" 
d="M229 610h-20q-4 0 -7 2.5t-2 5.5l94 184q7 10 15 10h49q10 0 10 -10l-113 -176q-3 -4 -8 -10t-18 -6z" />
    <glyph glyph-name="paragraph" unicode="&#xb6;" horiz-adv-x="545" 
d="M254 204q-75 0 -118.5 22t-66.5 73.5t-23 142.5q0 100 23 152t85.5 76t212.5 24h114q10 0 10 -10v-851q0 -10 -10 -10h-37q-10 0 -10 10v810q0 6 -6 6h-94q-6 0 -6 -6v-810q0 -10 -10 -10h-37q-10 0 -10 10v362q0 9 -17 9z" />
    <glyph glyph-name="periodcentered" unicode="&#xb7;" horiz-adv-x="267" 
d="M169 251h-71q-10 0 -10 10v79q0 10 10 10h71q10 0 10 -10v-79q0 -10 -10 -10z" />
    <glyph glyph-name="cedilla" unicode="&#xb8;" horiz-adv-x="500" 
d="M252 30q-22 -83 -22 -93q-1 -9 12 -9q45 0 67 -15t22 -56q0 -53 -32 -75t-110 -22q-23 0 -24 9l-4 24q0 8 9 8h22q43 0 64.5 11t21.5 39q0 24 -14 33t-54 9h-22q-7 0 -7 6l24 131h47z" />
    <glyph glyph-name="uni00B9" unicode="&#xb9;" horiz-adv-x="340" 
d="M55 837l85 18h3l8 1h53q7 0 7 -6v-364q0 -3 3 -4h75q6 0 6 -6v-42q0 -6 -6 -6h-229q-2 0 -4.5 2t-2.5 4v42q0 2 2.5 4t4.5 2h84q4 0 4 4v312l-4 3l-89 -18q-6 0 -6 6v41q0 6 6 7z" />
    <glyph glyph-name="ordmasculine" unicode="&#xba;" horiz-adv-x="407" 
d="M294 486q0 76 -17 110t-73 34q-35 0 -54 -10.5t-28.5 -39t-9.5 -94.5q0 -45 6 -77.5t24 -50.5t62 -18q24 0 46 7t33 38.5t11 100.5zM48 478q0 110 36.5 156t119.5 46q82 0 118 -44.5t36 -142.5q0 -102 -33 -152.5t-121 -50.5q-87 0 -121.5 48t-34.5 140z" />
    <glyph glyph-name="guillemotright" unicode="&#xbb;" horiz-adv-x="510" 
d="M262 292v-43q0 -8 -10 -18l-173 -173q-4 -2 -8 0.5t-4 7.5v36q0 5 0.5 12t10.5 17l120 129q3 5 3 10q0 7 -3 11l-120 128q-3 3 -7 8.5t-4 20.5v37q0 6 3.5 8.5t8.5 -0.5l173 -173q10 -10 10 -18zM442 292v-43q0 -8 -10 -18l-173 -173q-4 -2 -8 0.5t-4 7.5v36q0 5 0.5 12
t10.5 17l120 129q3 5 3 10q0 7 -3 11l-120 128q-3 3 -7 8.5t-4 20.5v37q0 6 3.5 8.5t8.5 -0.5l173 -173q10 -10 10 -18z" />
    <glyph glyph-name="onequarter" unicode="&#xbc;" horiz-adv-x="880" 
d="M256 -40l286 731q4 10 10 10h45q3 0 5 -3t1 -7l-288 -731q-4 -10 -10 -10h-43q-3 0 -5 3t-1 7zM55 661l85 18h3l8 1h53q7 0 7 -6v-364q0 -3 3 -4h75q6 0 6 -6v-42q0 -6 -6 -6h-229q-2 0 -4.5 2t-2.5 4v42q0 2 2.5 4t4.5 2h84q4 0 4 4v312l-4 3l-89 -18q-6 0 -6 6v41
q0 6 6 7zM551 107v44q0 3 0.5 8t8 26.5t116.5 236.5q2 6 8 6h49q7 0 7 -7q-131 -242 -131 -263q0 -5 4 -5h115q3 1 3 4v133q0 6 7 6h48q6 0 6 -6v-133q0 -4 4 -4h51q2 0 4 -2.5t2 -4.5v-39q0 -6 -6 -6h-51q-4 0 -4 -4v-91q0 -6 -6 -6h-48q-2 0 -4.5 2t-2.5 4v91q0 3 -3 4
h-171q-6 0 -6 6z" />
    <glyph glyph-name="onehalf" unicode="&#xbd;" horiz-adv-x="880" 
d="M256 -40l286 731q4 10 10 10h45q3 0 5 -3t1 -7l-288 -731q-4 -10 -10 -10h-43q-3 0 -5 3t-1 7zM55 661l85 18h3l8 1h53q7 0 7 -6v-364q0 -3 3 -4h75q6 0 6 -6v-42q0 -6 -6 -6h-229q-2 0 -4.5 2t-2.5 4v42q0 2 2.5 4t4.5 2h84q4 0 4 4v312l-4 3l-89 -18q-6 0 -6 6v41
q0 6 6 7zM567 6v42q0 50 27 86.5t92 81.5q37 26 58 47.5t21 59.5q0 32 -18.5 44.5t-61.5 12.5q-19 0 -48 -3.5t-43 -7.5q-6 0 -6 6l-4 41q0 4 6 6q7 2 34.5 7.5t64.5 5.5q70 0 105 -23t35 -82q0 -49 -21.5 -80.5t-75.5 -66.5q-61 -40 -82 -66.5t-21 -58.5q0 -5 6 -5h189
q7 0 7 -6v-41q0 -2 -2.5 -4t-4.5 -2h-247q-10 0 -10 6z" />
    <glyph glyph-name="threequarters" unicode="&#xbe;" horiz-adv-x="880" 
d="M256 -40l286 731q4 10 10 10h45q3 0 5 -3t1 -7l-288 -731q-4 -10 -10 -10h-43q-3 0 -5 3t-1 7zM551 107v44q0 3 0.5 8t8 26.5t116.5 236.5q2 6 8 6h49q7 0 7 -7q-131 -242 -131 -263q0 -5 4 -5h115q3 1 3 4v133q0 6 7 6h48q6 0 6 -6v-133q0 -4 4 -4h51q2 0 4 -2.5t2 -4.5
v-39q0 -6 -6 -6h-51q-4 0 -4 -4v-91q0 -6 -6 -6h-48q-2 0 -4.5 2t-2.5 4v91q0 3 -3 4h-171q-6 0 -6 6zM158 505l-3 -6q0 -3 3 -4q71 -1 105.5 -29.5t34.5 -83.5q0 -68 -37 -102t-121 -34q-48 0 -95 10q-6 2 -6 7l3 38q0 2 2.5 4t4.5 2q42 -8 83 -8q53 0 76.5 18t23.5 66
q0 38 -28 54t-95 16h-29q-2 0 -4.5 2t-2.5 4v33q0 4 7 11q44 36 87.5 76.5t43.5 45.5q0 3 -4 4h-160q-2 0 -3.5 2t-1.5 4v39q0 6 6 6h236q6 0 6 -4v-45q0 -5 -8 -14q-49 -51 -124 -112z" />
    <glyph glyph-name="questiondown" unicode="&#xbf;" horiz-adv-x="405" 
d="M343 -77q7 1 9 -10l5 -36q0 -8 -10 -11q-29 -9 -69 -15t-73 -6q-105 0 -141.5 35.5t-36.5 113.5q0 37 9.5 68.5t36 54.5t78.5 50q38 20 52.5 40.5t17 47t2.5 67.5q0 5 0.5 11.5t6.5 6.5h42q8 0 8 -23q0 -97 -19.5 -130t-55.5 -52q-70 -38 -88 -61.5t-20 -45.5t-2 -32
q0 -46 23.5 -68.5t93.5 -22.5q69 0 131 18zM213 535h72q10 0 10 -10v-79q0 -10 -10 -10h-72q-10 0 -10 10v79q0 10 10 10z" />
    <glyph glyph-name="Agrave" unicode="&#xc0;" horiz-adv-x="532" 
d="M394 184q-1 7 -8 7h-242q-8 0 -10 -7q0 -2 -2.5 -9t-19.5 -69t-25 -96q-4 -10 -13 -10h-55q-4 0 -6 3t-1 7q26 97 94 331t98 329q3 10 12 10h109q9 0 12 -10q30 -102 97 -345t85 -315q1 -4 -1 -7t-6 -3h-61q-10 0 -12 10q-30 124 -45 174zM161 249h209q8 0 8 8
q-46 187 -92 354q-1 2 -2.5 4.5t-15.5 2.5q-4 0 -9.5 -0.5t-7.5 -6.5q-2 -7 -8.5 -28.5t-36 -127t-53.5 -198.5q0 -8 8 -8zM321 742h-27q-11 0 -17.5 2t-14.5 9l-152 135q-4 3 -3.5 9.5t11.5 6.5h58q9 0 19 -10l131 -142q3 -3 1 -6.5t-6 -3.5z" />
    <glyph glyph-name="Aacute" unicode="&#xc1;" horiz-adv-x="532" 
d="M394 184q-1 7 -8 7h-242q-8 0 -10 -7q0 -2 -2.5 -9t-19.5 -69t-25 -96q-4 -10 -13 -10h-55q-4 0 -6 3t-1 7q26 97 94 331t98 329q3 10 12 10h109q9 0 12 -10q30 -102 97 -345t85 -315q1 -4 -1 -7t-6 -3h-61q-10 0 -12 10q-30 124 -45 174zM161 249h209q8 0 8 8
q-46 187 -92 354q-1 2 -2.5 4.5t-15.5 2.5q-4 0 -9.5 -0.5t-7.5 -6.5q-2 -7 -8.5 -28.5t-36 -127t-53.5 -198.5q0 -8 8 -8zM252 742h-27q-4 0 -6 3.5t1 6.5l131 142q10 10 19 10h58q11 0 11.5 -6.5t-3.5 -9.5l-152 -135q-3 -3 -9.5 -7t-22.5 -4z" />
    <glyph glyph-name="Acircumflex" unicode="&#xc2;" horiz-adv-x="532" 
d="M394 184q-1 7 -8 7h-242q-8 0 -10 -7q0 -2 -2.5 -9t-19.5 -69t-25 -96q-4 -10 -13 -10h-55q-4 0 -6 3t-1 7q26 97 94 331t98 329q3 10 12 10h109q9 0 12 -10q30 -102 97 -345t85 -315q1 -4 -1 -7t-6 -3h-61q-10 0 -12 10q-30 124 -45 174zM161 249h209q8 0 8 8
q-46 187 -92 354q-1 2 -2.5 4.5t-15.5 2.5q-4 0 -9.5 -0.5t-7.5 -6.5q-2 -7 -8.5 -28.5t-36 -127t-53.5 -198.5q0 -8 8 -8zM424 742h-22q-6 0 -16 0.5t-20 11.5l-87 92q-3 3 -9 3q-7 0 -10 -3l-89 -92q-3 -3 -9.5 -7.5t-23.5 -4.5h-24q-4 0 -7 2.5t-2 6.5l122 144q7 9 15 9
h55q8 0 15 -9l121 -144q1 -4 -2 -6.5t-7 -2.5z" />
    <glyph glyph-name="Atilde" unicode="&#xc3;" horiz-adv-x="532" 
d="M394 184q-1 7 -8 7h-242q-8 0 -10 -7q0 -2 -2.5 -9t-19.5 -69t-25 -96q-4 -10 -13 -10h-55q-4 0 -6 3t-1 7q26 97 94 331t98 329q3 10 12 10h109q9 0 12 -10q30 -102 97 -345t85 -315q1 -4 -1 -7t-6 -3h-61q-10 0 -12 10q-30 124 -45 174zM161 249h209q8 0 8 8
q-46 187 -92 354q-1 2 -2.5 4.5t-15.5 2.5q-4 0 -9.5 -0.5t-7.5 -6.5q-2 -7 -8.5 -28.5t-36 -127t-53.5 -198.5q0 -8 8 -8zM285 820q38 -27 57 -27q33 0 39 53q0 5 6 5h35q6 0 6 -8q0 -26 -12.5 -52t-32.5 -37.5t-39 -11.5q-8 0 -26.5 3.5t-56.5 29.5q-36 25 -56 25
q-34 0 -40 -50q0 -8 -6 -8h-35q-6 0 -6 9q0 39 23.5 69.5t61.5 30.5q11 0 28.5 -3.5t53.5 -27.5z" />
    <glyph glyph-name="Adieresis" unicode="&#xc4;" horiz-adv-x="532" 
d="M394 184q-1 7 -8 7h-242q-8 0 -10 -7q0 -2 -2.5 -9t-19.5 -69t-25 -96q-4 -10 -13 -10h-55q-4 0 -6 3t-1 7q26 97 94 331t98 329q3 10 12 10h109q9 0 12 -10q30 -102 97 -345t85 -315q1 -4 -1 -7t-6 -3h-61q-10 0 -12 10q-30 124 -45 174zM161 249h209q8 0 8 8
q-46 187 -92 354q-1 2 -2.5 4.5t-15.5 2.5q-4 0 -9.5 -0.5t-7.5 -6.5q-2 -7 -8.5 -28.5t-36 -127t-53.5 -198.5q0 -8 8 -8zM203 765h-56q-10 0 -10 10v59q0 10 10 10h56q10 0 10 -10v-59q0 -10 -10 -10zM395 765h-56q-10 0 -10 10v59q0 10 10 10h56q10 0 10 -10v-59
q0 -10 -10 -10z" />
    <glyph glyph-name="Aring" unicode="&#xc5;" horiz-adv-x="532" 
d="M394 184q-1 7 -8 7h-242q-8 0 -10 -7q0 -2 -2.5 -9t-19.5 -69t-25 -96q-4 -10 -13 -10h-55q-4 0 -6 3t-1 7q26 97 94 331t98 329q3 10 12 10h109q9 0 12 -10q30 -102 97 -345t85 -315q1 -4 -1 -7t-6 -3h-61q-10 0 -12 10q-30 124 -45 174zM161 249h209q8 0 8 8
q-46 187 -92 354q-1 2 -2.5 4.5t-15.5 2.5q-4 0 -9.5 -0.5t-7.5 -6.5q-2 -7 -8.5 -28.5t-36 -127t-53.5 -198.5q0 -8 8 -8zM155 832q0 62 30 87.5t87 25.5q116 0 116 -102q0 -33 -11 -60.5t-39 -41t-66 -13.5q-61 0 -89 26.5t-28 77.5zM341 839q0 30 -12.5 48.5t-56.5 18.5
q-40 0 -56 -13.5t-16 -53.5q0 -32 13 -52t59 -20q38 0 53.5 14.5t15.5 57.5z" />
    <glyph glyph-name="AE" unicode="&#xc6;" horiz-adv-x="705" 
d="M387 10l-27 175q-1 7 -7 7h-215q-9 0 -10 -7l-51 -175q-4 -10 -12 -10h-54q-4 0 -6 3t0 7q27 95 100.5 329.5t107.5 330.5q5 10 13 10h406q10 0 10 -10v-42q0 -10 -10 -10h-267q-5 0 -4 -6l35 -225q3 -6 7 -6h216q10 0 10 -10v-38q0 -10 -10 -10h-207q-5 0 -4 -6l39 -249
q2 -6 7 -6h196q10 0 10 -10v-42q0 -10 -10 -10h-253q-9 0 -10 10zM156 248h189q5 0 5 7l-54 359q-1 6 -19 6q-17 0 -18 -6q-2 -6 -9 -27.5t-40 -126t-61 -205.5q0 -7 7 -7z" />
    <glyph glyph-name="Ccedilla" unicode="&#xc7;" horiz-adv-x="484" 
d="M441 7q-45 -14 -113 -17h-3q-8 0 -9 -7q-2 -5 -6 -24t-4 -22q-1 -9 12 -9q45 0 67 -15t22 -56q0 -53 -32 -75t-110 -22q-23 0 -24 9l-4 24q0 8 9 8h22q43 0 64.5 11t21.5 39q0 24 -14 33t-54 9h-22q-7 0 -7 6l17 88q0 4 -3 5q-110 12 -156.5 97t-46.5 246
q0 83 13.5 148.5t42 111.5t76 70.5t113.5 24.5q78 0 125 -17q5 -2 5 -9l-4 -48q0 -2 -2.5 -4t-5.5 -1q-20 7 -51 12t-58 5q-40 0 -75 -12t-58 -43.5t-34.5 -86.5t-11.5 -152q0 -131 23 -187t62.5 -76t93.5 -20q24 0 55.5 4.5t50.5 9.5q12 2 13 -4l4 -43q1 -4 -0.5 -7
t-3.5 -4z" />
    <glyph glyph-name="Egrave" unicode="&#xc8;" horiz-adv-x="478" 
d="M93 10v660q0 10 10 10h303q10 0 10 -10v-42q0 -10 -10 -10h-234q-6 0 -6 -6v-225q0 -6 6 -6h221q10 0 10 -10v-38q0 -10 -10 -10h-221q-6 0 -6 -6v-249q0 -6 6 -6h252q10 0 10 -10v-42q0 -10 -10 -10h-321q-10 0 -10 10zM319 742h-27q-11 0 -17.5 2t-14.5 9l-152 135
q-4 3 -3.5 9.5t11.5 6.5h58q9 0 19 -10l131 -142q3 -3 1 -6.5t-6 -3.5z" />
    <glyph glyph-name="Eacute" unicode="&#xc9;" horiz-adv-x="478" 
d="M93 10v660q0 10 10 10h303q10 0 10 -10v-42q0 -10 -10 -10h-234q-6 0 -6 -6v-225q0 -6 6 -6h221q10 0 10 -10v-38q0 -10 -10 -10h-221q-6 0 -6 -6v-249q0 -6 6 -6h252q10 0 10 -10v-42q0 -10 -10 -10h-321q-10 0 -10 10zM253 742h-27q-4 0 -6 3.5t1 6.5l131 142
q10 10 19 10h58q11 0 11.5 -6.5t-3.5 -9.5l-152 -135q-3 -3 -9.5 -7t-22.5 -4z" />
    <glyph glyph-name="Ecircumflex" unicode="&#xca;" horiz-adv-x="478" 
d="M93 10v660q0 10 10 10h303q10 0 10 -10v-42q0 -10 -10 -10h-234q-6 0 -6 -6v-225q0 -6 6 -6h221q10 0 10 -10v-38q0 -10 -10 -10h-221q-6 0 -6 -6v-249q0 -6 6 -6h252q10 0 10 -10v-42q0 -10 -10 -10h-321q-10 0 -10 10zM419 742h-22q-6 0 -16 0.5t-20 11.5l-87 92
q-3 3 -9 3q-7 0 -10 -3l-89 -92q-3 -3 -9.5 -7.5t-23.5 -4.5h-24q-4 0 -7 2.5t-2 6.5l122 144q7 9 15 9h55q8 0 15 -9l121 -144q1 -4 -2 -6.5t-7 -2.5z" />
    <glyph glyph-name="Edieresis" unicode="&#xcb;" horiz-adv-x="478" 
d="M93 10v660q0 10 10 10h303q10 0 10 -10v-42q0 -10 -10 -10h-234q-6 0 -6 -6v-225q0 -6 6 -6h221q10 0 10 -10v-38q0 -10 -10 -10h-221q-6 0 -6 -6v-249q0 -6 6 -6h252q10 0 10 -10v-42q0 -10 -10 -10h-321q-10 0 -10 10zM201 765h-56q-10 0 -10 10v59q0 10 10 10h56
q10 0 10 -10v-59q0 -10 -10 -10zM393 765h-56q-10 0 -10 10v59q0 10 10 10h56q10 0 10 -10v-59q0 -10 -10 -10z" />
    <glyph glyph-name="Igrave" unicode="&#xcc;" horiz-adv-x="260" 
d="M156 0h-53q-10 0 -10 10v660q0 10 10 10h53q10 0 10 -10v-660q0 -10 -10 -10zM173 742h-27q-11 0 -17.5 2t-14.5 9l-152 135q-4 3 -3.5 9.5t11.5 6.5h58q9 0 19 -10l131 -142q3 -3 1 -6.5t-6 -3.5z" />
    <glyph glyph-name="Iacute" unicode="&#xcd;" horiz-adv-x="260" 
d="M156 0h-53q-10 0 -10 10v660q0 10 10 10h53q10 0 10 -10v-660q0 -10 -10 -10zM123 742h-27q-4 0 -6 3.5t1 6.5l131 142q10 10 19 10h58q11 0 11.5 -6.5t-3.5 -9.5l-152 -135q-3 -3 -9.5 -7t-22.5 -4z" />
    <glyph glyph-name="Icircumflex" unicode="&#xce;" horiz-adv-x="260" 
d="M156 0h-53q-10 0 -10 10v660q0 10 10 10h53q10 0 10 -10v-660q0 -10 -10 -10zM283 742h-22q-6 0 -16 0.5t-20 11.5l-87 92q-3 3 -9 3q-7 0 -10 -3l-89 -92q-3 -3 -9.5 -7.5t-23.5 -4.5h-24q-4 0 -7 2.5t-2 6.5l122 144q7 9 15 9h55q8 0 15 -9l121 -144q1 -4 -2 -6.5
t-7 -2.5z" />
    <glyph glyph-name="Idieresis" unicode="&#xcf;" horiz-adv-x="260" 
d="M156 0h-53q-10 0 -10 10v660q0 10 10 10h53q10 0 10 -10v-660q0 -10 -10 -10zM62 765h-56q-10 0 -10 10v59q0 10 10 10h56q10 0 10 -10v-59q0 -10 -10 -10zM254 765h-56q-10 0 -10 10v59q0 10 10 10h56q10 0 10 -10v-59q0 -10 -10 -10z" />
    <glyph glyph-name="Eth" unicode="&#xd0;" horiz-adv-x="627" 
d="M103 680h217q120 0 179.5 -83t59.5 -255t-60.5 -257t-178.5 -85h-217q-10 0 -10 10v308q0 2 -2 3.5t-4 1.5h-60q-10 0 -10 10v32q0 10 10 10h60q6 0 6 4v291q0 10 10 10zM484 345q0 147 -44 212t-131 65h-137q-6 0 -6 -6v-235q0 -6 6 -6h105q10 0 10 -10v-32
q0 -10 -10 -10h-105q-6 0 -6 -6v-253q0 -6 5 -6h139q85 0 129.5 68.5t44.5 218.5z" />
    <glyph glyph-name="Ntilde" unicode="&#xd1;" horiz-adv-x="635" 
d="M532 0h-101q-2 0 -6 1.5t-9 13.5l-232 575q-1 3 -4 8.5t-9 5.5q-2 0 -4.5 -1t-2.5 -12v-581q0 -10 -10 -10h-51q-10 0 -10 10v660q0 10 10 10h106q10 0 14 -12l228 -568q6 -14 13 -14q6 0 6 8v576q0 10 10 10h52q10 0 10 -10v-660q0 -10 -10 -10zM346 820q38 -27 57 -27
q33 0 39 53q0 5 6 5h35q6 0 6 -8q0 -26 -12.5 -52t-32.5 -37.5t-39 -11.5q-8 0 -26.5 3.5t-56.5 29.5q-36 25 -56 25q-34 0 -40 -50q0 -8 -6 -8h-35q-6 0 -6 9q0 39 23.5 69.5t61.5 30.5q11 0 28.5 -3.5t53.5 -27.5z" />
    <glyph glyph-name="Ograve" unicode="&#xd2;" horiz-adv-x="626" 
d="M144 339q0 -87 12.5 -158.5t34.5 -97.5q13 -15 33.5 -23.5t87.5 -8.5q56 0 81.5 6.5t42.5 25.5q22 26 34 97t12 159t-12 159.5t-34 97.5q-13 15 -34 23.5t-88 8.5q-56 0 -81 -6.5t-42 -25.5q-22 -26 -34.5 -97.5t-12.5 -159.5zM556 340q0 -97 -16 -175t-45 -115
q-21 -27 -57.5 -43.5t-125.5 -16.5q-72 0 -112.5 12.5t-68.5 47.5q-30 38 -46 116t-16 174t16 172.5t46 114.5q29 36 71 49.5t112 13.5t111.5 -13.5t70.5 -49.5q29 -37 44.5 -113.5t15.5 -173.5zM366 742h-27q-11 0 -17.5 2t-14.5 9l-152 135q-4 3 -3.5 9.5t11.5 6.5h58
q9 0 19 -10l131 -142q3 -3 1 -6.5t-6 -3.5z" />
    <glyph glyph-name="Oacute" unicode="&#xd3;" horiz-adv-x="626" 
d="M144 339q0 -87 12.5 -158.5t34.5 -97.5q13 -15 33.5 -23.5t87.5 -8.5q56 0 81.5 6.5t42.5 25.5q22 26 34 97t12 159t-12 159.5t-34 97.5q-13 15 -34 23.5t-88 8.5q-56 0 -81 -6.5t-42 -25.5q-22 -26 -34.5 -97.5t-12.5 -159.5zM556 340q0 -97 -16 -175t-45 -115
q-21 -27 -57.5 -43.5t-125.5 -16.5q-72 0 -112.5 12.5t-68.5 47.5q-30 38 -46 116t-16 174t16 172.5t46 114.5q29 36 71 49.5t112 13.5t111.5 -13.5t70.5 -49.5q29 -37 44.5 -113.5t15.5 -173.5zM303 742h-27q-4 0 -6 3.5t1 6.5l131 142q10 10 19 10h58q11 0 11.5 -6.5
t-3.5 -9.5l-152 -135q-3 -3 -9.5 -7t-22.5 -4z" />
    <glyph glyph-name="Ocircumflex" unicode="&#xd4;" horiz-adv-x="626" 
d="M144 339q0 -87 12.5 -158.5t34.5 -97.5q13 -15 33.5 -23.5t87.5 -8.5q56 0 81.5 6.5t42.5 25.5q22 26 34 97t12 159t-12 159.5t-34 97.5q-13 15 -34 23.5t-88 8.5q-56 0 -81 -6.5t-42 -25.5q-22 -26 -34.5 -97.5t-12.5 -159.5zM556 340q0 -97 -16 -175t-45 -115
q-21 -27 -57.5 -43.5t-125.5 -16.5q-72 0 -112.5 12.5t-68.5 47.5q-30 38 -46 116t-16 174t16 172.5t46 114.5q29 36 71 49.5t112 13.5t111.5 -13.5t70.5 -49.5q29 -37 44.5 -113.5t15.5 -173.5zM467 742h-22q-6 0 -16 0.5t-20 11.5l-87 92q-3 3 -9 3q-7 0 -10 -3l-89 -92
q-3 -3 -9.5 -7.5t-23.5 -4.5h-24q-4 0 -7 2.5t-2 6.5l122 144q7 9 15 9h55q8 0 15 -9l121 -144q1 -4 -2 -6.5t-7 -2.5z" />
    <glyph glyph-name="Otilde" unicode="&#xd5;" horiz-adv-x="626" 
d="M144 339q0 -87 12.5 -158.5t34.5 -97.5q13 -15 33.5 -23.5t87.5 -8.5q56 0 81.5 6.5t42.5 25.5q22 26 34 97t12 159t-12 159.5t-34 97.5q-13 15 -34 23.5t-88 8.5q-56 0 -81 -6.5t-42 -25.5q-22 -26 -34.5 -97.5t-12.5 -159.5zM556 340q0 -97 -16 -175t-45 -115
q-21 -27 -57.5 -43.5t-125.5 -16.5q-72 0 -112.5 12.5t-68.5 47.5q-30 38 -46 116t-16 174t16 172.5t46 114.5q29 36 71 49.5t112 13.5t111.5 -13.5t70.5 -49.5q29 -37 44.5 -113.5t15.5 -173.5zM328 820q38 -27 57 -27q33 0 39 53q0 5 6 5h35q6 0 6 -8q0 -26 -12.5 -52
t-32.5 -37.5t-39 -11.5q-8 0 -26.5 3.5t-56.5 29.5q-36 25 -56 25q-34 0 -40 -50q0 -8 -6 -8h-35q-6 0 -6 9q0 39 23.5 69.5t61.5 30.5q11 0 28.5 -3.5t53.5 -27.5z" />
    <glyph glyph-name="Odieresis" unicode="&#xd6;" horiz-adv-x="626" 
d="M144 339q0 -87 12.5 -158.5t34.5 -97.5q13 -15 33.5 -23.5t87.5 -8.5q56 0 81.5 6.5t42.5 25.5q22 26 34 97t12 159t-12 159.5t-34 97.5q-13 15 -34 23.5t-88 8.5q-56 0 -81 -6.5t-42 -25.5q-22 -26 -34.5 -97.5t-12.5 -159.5zM556 340q0 -97 -16 -175t-45 -115
q-21 -27 -57.5 -43.5t-125.5 -16.5q-72 0 -112.5 12.5t-68.5 47.5q-30 38 -46 116t-16 174t16 172.5t46 114.5q29 36 71 49.5t112 13.5t111.5 -13.5t70.5 -49.5q29 -37 44.5 -113.5t15.5 -173.5zM244 765h-56q-10 0 -10 10v59q0 10 10 10h56q10 0 10 -10v-59q0 -10 -10 -10z
M436 765h-56q-10 0 -10 10v59q0 10 10 10h56q10 0 10 -10v-59q0 -10 -10 -10z" />
    <glyph glyph-name="multiply" unicode="&#xd7;" 
d="M274 315l4 3l131 131l7 3q4 0 7 -3l27 -27l3 -7q0 -4 -3 -7l-131 -131l-2 -5l2 -4l130 -130l3 -7q0 -5 -3 -8l-26 -25q-4 -4 -8 -4l-7 4l-130 130l-4 2l-4 -2l-130 -130l-7 -4q-4 0 -8 4l-26 25q-3 3 -3 8l3 7l130 130l2 4l-2 5l-131 131q-3 3 -3 7l3 7l27 27q3 3 7 3
l7 -3l131 -131z" />
    <glyph glyph-name="Oslash" unicode="&#xd8;" horiz-adv-x="626" 
d="M556 340q0 -97 -16 -175t-45 -115q-21 -27 -57.5 -43.5t-125.5 -16.5q-48 0 -79.5 4.5t-54.5 16.5q-8 2 -16 -11l-27 -46q-5 -9 -16 -9h-38q-5 0 -7 4.5t1 9.5l46 77q5 8 5 14l-1 7q-27 40 -41.5 116t-14.5 167q0 96 16 172.5t46 114.5q29 36 71 49.5t112 13.5
q88 0 131 -21q9 0 16 12l24 42q6 9 16 9h39q5 0 7 -4.5t-1 -9.5l-44 -72q-7 -12 -4 -23q14 -18 28 -55t22 -97.5t8 -130.5zM144 339q0 -87 12.5 -158.5t34.5 -97.5q13 -15 33.5 -23.5t87.5 -8.5q56 0 81.5 6.5t42.5 25.5q22 26 34 97t12 159t-12 159.5t-34 97.5
q-13 15 -34 23.5t-88 8.5q-56 0 -81 -6.5t-42 -25.5q-22 -26 -34.5 -97.5t-12.5 -159.5z" />
    <glyph glyph-name="Ugrave" unicode="&#xd9;" horiz-adv-x="609" 
d="M523 670v-518q0 -76 -58 -119t-164 -43q-109 0 -162 42.5t-53 119.5v518q0 10 10 10h53q10 0 10 -10v-505q0 -56 32.5 -84t109.5 -28q79 0 114 28t35 85v504q0 10 10 10h53q10 0 10 -10zM348 742h-27q-11 0 -17.5 2t-14.5 9l-152 135q-4 3 -3.5 9.5t11.5 6.5h58
q9 0 19 -10l131 -142q3 -3 1 -6.5t-6 -3.5z" />
    <glyph glyph-name="Uacute" unicode="&#xda;" horiz-adv-x="609" 
d="M523 670v-518q0 -76 -58 -119t-164 -43q-109 0 -162 42.5t-53 119.5v518q0 10 10 10h53q10 0 10 -10v-505q0 -56 32.5 -84t109.5 -28q79 0 114 28t35 85v504q0 10 10 10h53q10 0 10 -10zM299 742h-27q-4 0 -6 3.5t1 6.5l131 142q10 10 19 10h58q11 0 11.5 -6.5t-3.5 -9.5
l-152 -135q-3 -3 -9.5 -7t-22.5 -4z" />
    <glyph glyph-name="Ucircumflex" unicode="&#xdb;" horiz-adv-x="609" 
d="M523 670v-518q0 -76 -58 -119t-164 -43q-109 0 -162 42.5t-53 119.5v518q0 10 10 10h53q10 0 10 -10v-505q0 -56 32.5 -84t109.5 -28q79 0 114 28t35 85v504q0 10 10 10h53q10 0 10 -10zM456 742h-22q-6 0 -16 0.5t-20 11.5l-87 92q-3 3 -9 3q-7 0 -10 -3l-89 -92
q-3 -3 -9.5 -7.5t-23.5 -4.5h-24q-4 0 -7 2.5t-2 6.5l122 144q7 9 15 9h55q8 0 15 -9l121 -144q1 -4 -2 -6.5t-7 -2.5z" />
    <glyph glyph-name="Udieresis" unicode="&#xdc;" horiz-adv-x="609" 
d="M523 670v-518q0 -76 -58 -119t-164 -43q-109 0 -162 42.5t-53 119.5v518q0 10 10 10h53q10 0 10 -10v-505q0 -56 32.5 -84t109.5 -28q79 0 114 28t35 85v504q0 10 10 10h53q10 0 10 -10zM235 765h-56q-10 0 -10 10v59q0 10 10 10h56q10 0 10 -10v-59q0 -10 -10 -10z
M427 765h-56q-10 0 -10 10v59q0 10 10 10h56q10 0 10 -10v-59q0 -10 -10 -10z" />
    <glyph glyph-name="Yacute" unicode="&#xdd;" horiz-adv-x="489" 
d="M410 669q6 11 15 11h54q8 0 5 -10q-3 -6 -12.5 -26t-56 -113.5t-102.5 -191.5q-25 -43 -30.5 -54.5t-5.5 -21.5v-253q0 -10 -10 -10h-53q-10 0 -10 10v254q0 4 -2 13t-30 59q-34 61 -94 179t-74 155q-1 4 1 7t6 3h57q10 0 14 -11q24 -56 73 -160t73 -149q3 -5 6.5 -10.5
t9.5 -5.5q2 0 4.5 1t11.5 15q26 44 74 144t76 165zM253 742h-27q-4 0 -6 3.5t1 6.5l131 142q10 10 19 10h58q11 0 11.5 -6.5t-3.5 -9.5l-152 -135q-3 -3 -9.5 -7t-22.5 -4z" />
    <glyph glyph-name="Thorn" unicode="&#xde;" horiz-adv-x="526" 
d="M172 227h82q57 0 87 15.5t44 47t14 85.5q0 40 -9.5 71t-38.5 51t-97 20h-82q-6 0 -6 -6v-278q0 -6 6 -6zM172 573h101q101 0 151 -46t50 -150q0 -71 -23 -116t-69.5 -68t-125.5 -23h-84q-6 0 -6 -6v-154q0 -10 -10 -10h-53q-10 0 -10 10v660q0 10 10 10h53q10 0 10 -10
v-91q0 -6 6 -6z" />
    <glyph glyph-name="germandbls" unicode="&#xdf;" horiz-adv-x="613" 
d="M161 506v-496q0 -10 -10 -10h-50q-10 0 -10 10v495q0 112 52.5 171t173.5 59q103 0 148.5 -38t45.5 -112q0 -24 -7 -43.5t-19.5 -34.5t-34.5 -35.5t-30 -28t-13 -16t-8 -17.5t-3 -18q0 -24 13.5 -46t56.5 -62q54 -50 75.5 -83.5t21.5 -76.5q0 -72 -42.5 -103t-132.5 -31
q-34 0 -80 4t-46 13l4 46q1 4 4 4h2q50 -10 105 -10q66 0 92.5 15t26.5 56q0 23 -13 48.5t-76 84.5q-35 33 -57 63.5t-22 71.5q0 30 13 52.5t39.5 46t36.5 34.5t15 21t8 20.5t3 22.5q0 47 -29 72.5t-98 25.5q-86 0 -120.5 -40t-34.5 -135z" />
    <glyph glyph-name="agrave" unicode="&#xe0;" horiz-adv-x="528" 
d="M249 487q-61 0 -125 -12q-11 -2 -12 6l-6 33q-2 10 6 13q62 18 150 18q93 0 134.5 -38t41.5 -125v-361q0 -12 -12 -16q-52 -15 -147 -15q-78 0 -123.5 12t-68.5 42t-23 92q0 58 14.5 88.5t50 48t101.5 23.5l134 13q6 2 6 7v54q0 66 -26 91.5t-95 25.5zM370 56v189
q0 6 -6 6h-110q-45 0 -70 -8.5t-37 -30t-12 -68.5q0 -40 10 -61.5t37 -31t92 -9.5q64 0 86 6q10 3 10 8zM302 610h-22q-4 0 -10.5 1t-15.5 15l-113 176q0 10 10 10h49q8 0 15 -10l95 -184q2 -8 -8 -8z" />
    <glyph glyph-name="aacute" unicode="&#xe1;" horiz-adv-x="528" 
d="M249 487q-61 0 -125 -12q-11 -2 -12 6l-6 33q-2 10 6 13q62 18 150 18q93 0 134.5 -38t41.5 -125v-361q0 -12 -12 -16q-52 -15 -147 -15q-78 0 -123.5 12t-68.5 42t-23 92q0 58 14.5 88.5t50 48t101.5 23.5l134 13q6 2 6 7v54q0 66 -26 91.5t-95 25.5zM370 56v189
q0 6 -6 6h-110q-45 0 -70 -8.5t-37 -30t-12 -68.5q0 -40 10 -61.5t37 -31t92 -9.5q64 0 86 6q10 3 10 8zM252 610h-20q-4 0 -7 2.5t-2 5.5l94 184q7 10 15 10h49q10 0 10 -10l-113 -176q-3 -4 -8 -10t-18 -6z" />
    <glyph glyph-name="acircumflex" unicode="&#xe2;" horiz-adv-x="528" 
d="M249 487q-61 0 -125 -12q-11 -2 -12 6l-6 33q-2 10 6 13q62 18 150 18q93 0 134.5 -38t41.5 -125v-361q0 -12 -12 -16q-52 -15 -147 -15q-78 0 -123.5 12t-68.5 42t-23 92q0 58 14.5 88.5t50 48t101.5 23.5l134 13q6 2 6 7v54q0 66 -26 91.5t-95 25.5zM370 56v189
q0 6 -6 6h-110q-45 0 -70 -8.5t-37 -30t-12 -68.5q0 -40 10 -61.5t37 -31t92 -9.5q64 0 86 6q10 3 10 8zM430 612h-20q-5 0 -13.5 1t-17.5 13l-94 123q-3 3 -9 3t-11 -3l-96 -123q-3 -4 -8.5 -9t-17.5 -5h-24q-10 0 -9 8l123 176q7 10 15 10h55q8 0 15 -10l121 -176
q3 -8 -9 -8z" />
    <glyph glyph-name="atilde" unicode="&#xe3;" horiz-adv-x="528" 
d="M249 487q-61 0 -125 -12q-11 -2 -12 6l-6 33q-2 10 6 13q62 18 150 18q93 0 134.5 -38t41.5 -125v-361q0 -12 -12 -16q-52 -15 -147 -15q-78 0 -123.5 12t-68.5 42t-23 92q0 58 14.5 88.5t50 48t101.5 23.5l134 13q6 2 6 7v54q0 66 -26 91.5t-95 25.5zM370 56v189
q0 6 -6 6h-110q-45 0 -70 -8.5t-37 -30t-12 -68.5q0 -40 10 -61.5t37 -31t92 -9.5q64 0 86 6q10 3 10 8zM295 710q38 -27 57 -27q33 0 39 53q0 5 6 5h35q6 0 6 -8q0 -26 -12.5 -52t-32.5 -37.5t-39 -11.5q-8 0 -26.5 3.5t-56.5 29.5q-36 25 -56 25q-34 0 -40 -50q0 -8 -6 -8
h-35q-6 0 -6 9q0 39 23.5 69.5t61.5 30.5q11 0 28.5 -3.5t53.5 -27.5z" />
    <glyph glyph-name="adieresis" unicode="&#xe4;" horiz-adv-x="528" 
d="M249 487q-61 0 -125 -12q-11 -2 -12 6l-6 33q-2 10 6 13q62 18 150 18q93 0 134.5 -38t41.5 -125v-361q0 -12 -12 -16q-52 -15 -147 -15q-78 0 -123.5 12t-68.5 42t-23 92q0 58 14.5 88.5t50 48t101.5 23.5l134 13q6 2 6 7v54q0 66 -26 91.5t-95 25.5zM370 56v189
q0 6 -6 6h-110q-45 0 -70 -8.5t-37 -30t-12 -68.5q0 -40 10 -61.5t37 -31t92 -9.5q64 0 86 6q10 3 10 8zM212 649h-56q-10 0 -10 10v59q0 10 10 10h56q10 0 10 -10v-59q0 -10 -10 -10zM404 649h-56q-10 0 -10 10v59q0 10 10 10h56q10 0 10 -10v-59q0 -10 -10 -10z" />
    <glyph glyph-name="aring" unicode="&#xe5;" horiz-adv-x="528" 
d="M249 487q-61 0 -125 -12q-11 -2 -12 6l-6 33q-2 10 6 13q62 18 150 18q93 0 134.5 -38t41.5 -125v-361q0 -12 -12 -16q-52 -15 -147 -15q-78 0 -123.5 12t-68.5 42t-23 92q0 58 14.5 88.5t50 48t101.5 23.5l134 13q6 2 6 7v54q0 66 -26 91.5t-95 25.5zM370 56v189
q0 6 -6 6h-110q-45 0 -70 -8.5t-37 -30t-12 -68.5q0 -40 10 -61.5t37 -31t92 -9.5q64 0 86 6q10 3 10 8zM159 712q0 62 30 87.5t87 25.5q116 0 116 -102q0 -33 -11 -60.5t-39 -41t-66 -13.5q-61 0 -89 26.5t-28 77.5zM345 719q0 30 -12.5 48.5t-56.5 18.5q-40 0 -56 -13.5
t-16 -53.5q0 -32 13 -52t59 -20q38 0 53.5 14.5t15.5 57.5z" />
    <glyph glyph-name="ae" unicode="&#xe6;" horiz-adv-x="819" 
d="M605 46q30 0 66 7.5t59 17.5q13 5 14 -5l4 -37q0 -8 -7 -12q-29 -12 -69.5 -19.5t-81.5 -7.5q-62 0 -105.5 17t-79.5 60l-4 2l-5 -3q-20 -36 -60.5 -56t-97.5 -20q-94 0 -134 32.5t-40 112.5q0 61 16.5 92t54 47.5t105.5 23.5l116 12q9 1 9 10v53q0 40 -8.5 64t-32 37
t-75.5 13q-30 0 -66.5 -3.5t-58.5 -8.5q-11 -2 -12 6l-6 33q0 2 -0.5 5t5.5 6q16 8 66.5 14t83.5 6q57 0 92 -16t54 -52l4 -3l3 1q19 31 58.5 50.5t91.5 19.5q59 0 102.5 -18.5t67.5 -65.5t24 -145v-22q0 -21 -4.5 -32.5t-21.5 -11.5h-297q-6 0 -6 -7q0 -109 39 -153.5
t137 -43.5zM365 150v98q0 5 -6 5h-89q-51 0 -79 -7.5t-42 -29.5t-14 -75q0 -52 22.5 -76t88.5 -24q39 0 65 12.5t40 37t14 59.5zM435 303h245q7 0 9.5 6t2.5 30q0 89 -31.5 120.5t-96.5 31.5q-71 0 -103 -42.5t-32 -138.5q0 -7 6 -7z" />
    <glyph glyph-name="ccedilla" unicode="&#xe7;" horiz-adv-x="418" 
d="M380 4q-45 -14 -100 -14q-8 0 -9 -7q-2 -5 -6 -24t-4 -22q-1 -9 12 -9q45 0 67 -15t22 -56q0 -53 -32 -75t-110 -22q-23 0 -24 9l-4 24q0 8 9 8h22q43 0 64.5 11t21.5 39q0 24 -14 33t-54 9h-22q-7 0 -7 6l17 88q0 7 -2 8q-84 15 -122 82t-38 187q0 101 25 161.5t71.5 90
t118.5 29.5q61 0 96 -14q4 -1 4 -7l-4 -43q0 -2 -1.5 -3.5t-4.5 -0.5q-33 12 -84 12t-82.5 -21t-48 -68t-16.5 -137q0 -113 32.5 -164.5t112.5 -51.5q40 0 84 12q7 2 8 -3l5 -44q1 -7 -3 -8z" />
    <glyph glyph-name="egrave" unicode="&#xe8;" horiz-adv-x="540" 
d="M140 310q0 -7 6 -7h255q7 0 9.5 6t2.5 29q0 79 -28.5 115.5t-101.5 36.5q-71 0 -107 -43.5t-36 -136.5zM460 17q-29 -12 -69.5 -19.5t-80.5 -7.5q-123 0 -183 64.5t-60 213.5q0 61 11 111.5t36 87.5t67 57.5t102 20.5q74 0 116.5 -25.5t61 -73t18.5 -130.5v-22
q0 -21 -4.5 -33t-21.5 -12h-307q-6 0 -6 -7q0 -106 42.5 -150.5t141.5 -44.5q30 0 66 7t59 17q13 5 14 -5l4 -37q0 -8 -7 -12zM309 610h-22q-4 0 -10.5 1t-15.5 15l-113 176q0 10 10 10h49q8 0 15 -10l95 -184q2 -8 -8 -8z" />
    <glyph glyph-name="eacute" unicode="&#xe9;" horiz-adv-x="540" 
d="M140 310q0 -7 6 -7h255q7 0 9.5 6t2.5 29q0 79 -28.5 115.5t-101.5 36.5q-71 0 -107 -43.5t-36 -136.5zM460 17q-29 -12 -69.5 -19.5t-80.5 -7.5q-123 0 -183 64.5t-60 213.5q0 61 11 111.5t36 87.5t67 57.5t102 20.5q74 0 116.5 -25.5t61 -73t18.5 -130.5v-22
q0 -21 -4.5 -33t-21.5 -12h-307q-6 0 -6 -7q0 -106 42.5 -150.5t141.5 -44.5q30 0 66 7t59 17q13 5 14 -5l4 -37q0 -8 -7 -12zM269 610h-20q-4 0 -7 2.5t-2 5.5l94 184q7 10 15 10h49q10 0 10 -10l-113 -176q-3 -4 -8 -10t-18 -6z" />
    <glyph glyph-name="ecircumflex" unicode="&#xea;" horiz-adv-x="540" 
d="M140 310q0 -7 6 -7h255q7 0 9.5 6t2.5 29q0 79 -28.5 115.5t-101.5 36.5q-71 0 -107 -43.5t-36 -136.5zM460 17q-29 -12 -69.5 -19.5t-80.5 -7.5q-123 0 -183 64.5t-60 213.5q0 61 11 111.5t36 87.5t67 57.5t102 20.5q74 0 116.5 -25.5t61 -73t18.5 -130.5v-22
q0 -21 -4.5 -33t-21.5 -12h-307q-6 0 -6 -7q0 -106 42.5 -150.5t141.5 -44.5q30 0 66 7t59 17q13 5 14 -5l4 -37q0 -8 -7 -12zM439 612h-20q-5 0 -13.5 1t-17.5 13l-94 123q-3 3 -9 3t-11 -3l-96 -123q-3 -4 -8.5 -9t-17.5 -5h-24q-10 0 -9 8l123 176q7 10 15 10h55
q8 0 15 -10l121 -176q3 -8 -9 -8z" />
    <glyph glyph-name="edieresis" unicode="&#xeb;" horiz-adv-x="540" 
d="M140 310q0 -7 6 -7h255q7 0 9.5 6t2.5 29q0 79 -28.5 115.5t-101.5 36.5q-71 0 -107 -43.5t-36 -136.5zM460 17q-29 -12 -69.5 -19.5t-80.5 -7.5q-123 0 -183 64.5t-60 213.5q0 61 11 111.5t36 87.5t67 57.5t102 20.5q74 0 116.5 -25.5t61 -73t18.5 -130.5v-22
q0 -21 -4.5 -33t-21.5 -12h-307q-6 0 -6 -7q0 -106 42.5 -150.5t141.5 -44.5q30 0 66 7t59 17q13 5 14 -5l4 -37q0 -8 -7 -12zM210 649h-56q-10 0 -10 10v59q0 10 10 10h56q10 0 10 -10v-59q0 -10 -10 -10zM402 649h-56q-10 0 -10 10v59q0 10 10 10h56q10 0 10 -10v-59
q0 -10 -10 -10z" />
    <glyph glyph-name="igrave" unicode="&#xec;" horiz-adv-x="264" 
d="M164 610h-22q-4 0 -10.5 1t-15.5 15l-113 176q0 10 10 10h49q8 0 15 -10l95 -184q2 -8 -8 -8zM157 0h-51q-10 0 -10 10v515q0 10 10 10h51q10 0 10 -10v-515q0 -10 -10 -10z" />
    <glyph glyph-name="iacute" unicode="&#xed;" horiz-adv-x="264" 
d="M123 610h-20q-4 0 -7 2.5t-2 5.5l94 184q7 10 15 10h49q10 0 10 -10l-113 -176q-3 -4 -8 -10t-18 -6zM157 0h-51q-10 0 -10 10v515q0 10 10 10h51q10 0 10 -10v-515q0 -10 -10 -10z" />
    <glyph glyph-name="icircumflex" unicode="&#xee;" horiz-adv-x="264" 
d="M157 0h-51q-10 0 -10 10v515q0 10 10 10h51q10 0 10 -10v-515q0 -10 -10 -10zM288 612h-20q-5 0 -13.5 1t-17.5 13l-94 123q-3 3 -9 3t-11 -3l-96 -123q-3 -4 -8.5 -9t-17.5 -5h-24q-10 0 -9 8l123 176q7 10 15 10h55q8 0 15 -10l121 -176q3 -8 -9 -8z" />
    <glyph glyph-name="idieresis" unicode="&#xef;" horiz-adv-x="264" 
d="M66 649h-56q-10 0 -10 10v59q0 10 10 10h56q10 0 10 -10v-59q0 -10 -10 -10zM258 649h-56q-10 0 -10 10v59q0 10 10 10h56q10 0 10 -10v-59q0 -10 -10 -10zM157 0h-51q-10 0 -10 10v515q0 10 10 10h51q10 0 10 -10v-515q0 -10 -10 -10z" />
    <glyph glyph-name="eth" unicode="&#xf0;" horiz-adv-x="570" 
d="M314 616l-152 -39q-12 -2 -12 4v40q0 5 9 8l115 28q5 1 7 2.5t-1 4.5q-34 37 -60 61q-2 3 1.5 6t8.5 3h52q11 0 20 -7l47 -47q3 -3 10 -1l93 25q6 2 9 1.5t3 -5.5v-38q0 -8 -7 -9l-64 -16q-7 -2 -6 -6q55 -77 83.5 -172t28.5 -201q0 -72 -11 -122.5t-35.5 -83t-66 -48
t-102.5 -15.5q-46 0 -81.5 8.5t-59.5 26t-39.5 44.5t-24.5 70t-9 113q0 100 19.5 155.5t61.5 83t114 27.5q33 0 70.5 -8.5t42.5 -8.5q8 0 8 8t-3 12q-16 39 -58 91q-5 6 -11 5zM143 245q0 -75 10 -117t38 -64t93 -22q51 0 81 14.5t46 56t16 134.5q0 92 -14 135.5t-45.5 62.5
t-88.5 19q-51 0 -79.5 -18t-42.5 -62.5t-14 -138.5z" />
    <glyph glyph-name="ntilde" unicode="&#xf1;" horiz-adv-x="561" 
d="M274 545q75 0 118 -13.5t65 -48.5t22 -111v-362q0 -10 -10 -10h-51q-10 0 -10 10v355q0 45 -10 71t-37 39t-88 13q-64 0 -104 -9q-10 -3 -10 -11v-458q0 -10 -10 -10h-51q-10 0 -10 10v506q0 8 10 10q37 7 87.5 13t88.5 6zM302 710q38 -27 57 -27q33 0 39 53q0 5 6 5h35
q6 0 6 -8q0 -26 -12.5 -52t-32.5 -37.5t-39 -11.5q-8 0 -26.5 3.5t-56.5 29.5q-36 25 -56 25q-34 0 -40 -50q0 -8 -6 -8h-35q-6 0 -6 9q0 39 23.5 69.5t61.5 30.5q11 0 28.5 -3.5t53.5 -27.5z" />
    <glyph glyph-name="ograve" unicode="&#xf2;" horiz-adv-x="571" 
d="M139 271q0 -68 11.5 -121t33.5 -75q15 -15 35.5 -21t64.5 -6q35 0 60.5 4.5t43.5 22.5q21 22 32.5 75t11.5 121t-11 118t-33 72q-14 15 -35 21t-66 6q-35 0 -60.5 -4.5t-43.5 -22.5q-21 -22 -32.5 -72.5t-11.5 -117.5zM504 272q0 -35 -5.5 -79.5t-19.5 -86t-34 -64.5
q-25 -28 -63.5 -40t-97.5 -12t-95.5 12t-61.5 40q-27 31 -43.5 94t-16.5 136q0 74 16 132t44 89q25 28 62.5 40t96.5 12q44 0 86.5 -9t73.5 -43q27 -31 42.5 -89t15.5 -132zM321 610h-22q-4 0 -10.5 1t-15.5 15l-113 176q0 10 10 10h49q8 0 15 -10l95 -184q2 -8 -8 -8z" />
    <glyph glyph-name="oacute" unicode="&#xf3;" horiz-adv-x="571" 
d="M139 271q0 -68 11.5 -121t33.5 -75q15 -15 35.5 -21t64.5 -6q35 0 60.5 4.5t43.5 22.5q21 22 32.5 75t11.5 121t-11 118t-33 72q-14 15 -35 21t-66 6q-35 0 -60.5 -4.5t-43.5 -22.5q-21 -22 -32.5 -72.5t-11.5 -117.5zM504 272q0 -35 -5.5 -79.5t-19.5 -86t-34 -64.5
q-25 -28 -63.5 -40t-97.5 -12t-95.5 12t-61.5 40q-27 31 -43.5 94t-16.5 136q0 74 16 132t44 89q25 28 62.5 40t96.5 12q44 0 86.5 -9t73.5 -43q27 -31 42.5 -89t15.5 -132zM274 610h-20q-4 0 -7 2.5t-2 5.5l94 184q7 10 15 10h49q10 0 10 -10l-113 -176q-3 -4 -8 -10
t-18 -6z" />
    <glyph glyph-name="ocircumflex" unicode="&#xf4;" horiz-adv-x="571" 
d="M139 271q0 -68 11.5 -121t33.5 -75q15 -15 35.5 -21t64.5 -6q35 0 60.5 4.5t43.5 22.5q21 22 32.5 75t11.5 121t-11 118t-33 72q-14 15 -35 21t-66 6q-35 0 -60.5 -4.5t-43.5 -22.5q-21 -22 -32.5 -72.5t-11.5 -117.5zM504 272q0 -35 -5.5 -79.5t-19.5 -86t-34 -64.5
q-25 -28 -63.5 -40t-97.5 -12t-95.5 12t-61.5 40q-27 31 -43.5 94t-16.5 136q0 74 16 132t44 89q25 28 62.5 40t96.5 12q44 0 86.5 -9t73.5 -43q27 -31 42.5 -89t15.5 -132zM440 612h-20q-5 0 -13.5 1t-17.5 13l-94 123q-3 3 -9 3t-11 -3l-96 -123q-3 -4 -8.5 -9t-17.5 -5
h-24q-10 0 -9 8l123 176q7 10 15 10h55q8 0 15 -10l121 -176q3 -8 -9 -8z" />
    <glyph glyph-name="otilde" unicode="&#xf5;" horiz-adv-x="571" 
d="M139 271q0 -68 11.5 -121t33.5 -75q15 -15 35.5 -21t64.5 -6q35 0 60.5 4.5t43.5 22.5q21 22 32.5 75t11.5 121t-11 118t-33 72q-14 15 -35 21t-66 6q-35 0 -60.5 -4.5t-43.5 -22.5q-21 -22 -32.5 -72.5t-11.5 -117.5zM504 272q0 -35 -5.5 -79.5t-19.5 -86t-34 -64.5
q-25 -28 -63.5 -40t-97.5 -12t-95.5 12t-61.5 40q-27 31 -43.5 94t-16.5 136q0 74 16 132t44 89q25 28 62.5 40t96.5 12q44 0 86.5 -9t73.5 -43q27 -31 42.5 -89t15.5 -132zM301 710q38 -27 57 -27q33 0 39 53q0 5 6 5h35q6 0 6 -8q0 -26 -12.5 -52t-32.5 -37.5t-39 -11.5
q-8 0 -26.5 3.5t-56.5 29.5q-36 25 -56 25q-34 0 -40 -50q0 -8 -6 -8h-35q-6 0 -6 9q0 39 23.5 69.5t61.5 30.5q11 0 28.5 -3.5t53.5 -27.5z" />
    <glyph glyph-name="odieresis" unicode="&#xf6;" horiz-adv-x="571" 
d="M139 271q0 -68 11.5 -121t33.5 -75q15 -15 35.5 -21t64.5 -6q35 0 60.5 4.5t43.5 22.5q21 22 32.5 75t11.5 121t-11 118t-33 72q-14 15 -35 21t-66 6q-35 0 -60.5 -4.5t-43.5 -22.5q-21 -22 -32.5 -72.5t-11.5 -117.5zM504 272q0 -35 -5.5 -79.5t-19.5 -86t-34 -64.5
q-25 -28 -63.5 -40t-97.5 -12t-95.5 12t-61.5 40q-27 31 -43.5 94t-16.5 136q0 74 16 132t44 89q25 28 62.5 40t96.5 12q44 0 86.5 -9t73.5 -43q27 -31 42.5 -89t15.5 -132zM217 649h-56q-10 0 -10 10v59q0 10 10 10h56q10 0 10 -10v-59q0 -10 -10 -10zM409 649h-56
q-10 0 -10 10v59q0 10 10 10h56q10 0 10 -10v-59q0 -10 -10 -10z" />
    <glyph glyph-name="divide" unicode="&#xf7;" 
d="M474 234h-399q-10 0 -10 10v35q0 11 10 11h399q11 0 11 -11v-35q0 -10 -11 -10zM304 374h-61q-10 0 -10 11v62q0 10 10 10h61q4 0 7.5 -3t3.5 -7v-62q0 -2 -2 -6.5t-9 -4.5zM304 58h-61q-10 0 -10 11v62q0 10 10 10h61q4 0 7.5 -3t3.5 -7v-62q0 -2 -2 -6.5t-9 -4.5z" />
    <glyph glyph-name="oslash" unicode="&#xf8;" horiz-adv-x="571" 
d="M504 272q0 -35 -5.5 -79.5t-19.5 -86t-34 -64.5q-25 -28 -63.5 -40t-97.5 -12q-65 0 -104 15q-12 -1 -18 -12l-23 -39q-5 -9 -16 -9h-38q-5 0 -7 4.5t1 9.5l42 70q6 10 3 17q-26 31 -41.5 92t-15.5 134q0 74 16 132t44 89q25 28 62.5 40t96.5 12q71 0 111 -17q3 0 8 1
t11 11l24 40q6 9 16 9h39q5 0 7 -4.5t-1 -9.5l-43 -69q-6 -10 -6 -15l2 -8q23 -33 36.5 -88t13.5 -123zM139 271q0 -68 11.5 -121t33.5 -75q15 -15 35.5 -21t64.5 -6q35 0 60.5 4.5t43.5 22.5q21 22 32.5 75t11.5 121t-11 118t-33 72q-14 15 -35 21t-66 6q-35 0 -60.5 -4.5
t-43.5 -22.5q-21 -22 -32.5 -72.5t-11.5 -117.5z" />
    <glyph glyph-name="ugrave" unicode="&#xf9;" horiz-adv-x="561" 
d="M290 -10q-89 0 -131.5 18.5t-59.5 55.5t-17 101v360q0 10 10 10h51q10 0 10 -10v-352q0 -45 11.5 -74t43 -40t82.5 -11q62 0 102 9q10 3 10 11v457q0 10 10 10h51q10 0 10 -10v-506q0 -8 -10 -10q-38 -8 -88.5 -13.5t-84.5 -5.5zM308 610h-22q-4 0 -10.5 1t-15.5 15
l-113 176q0 10 10 10h49q8 0 15 -10l95 -184q2 -8 -8 -8z" />
    <glyph glyph-name="uacute" unicode="&#xfa;" horiz-adv-x="561" 
d="M290 -10q-89 0 -131.5 18.5t-59.5 55.5t-17 101v360q0 10 10 10h51q10 0 10 -10v-352q0 -45 11.5 -74t43 -40t82.5 -11q62 0 102 9q10 3 10 11v457q0 10 10 10h51q10 0 10 -10v-506q0 -8 -10 -10q-38 -8 -88.5 -13.5t-84.5 -5.5zM267 610h-20q-4 0 -7 2.5t-2 5.5l94 184
q7 10 15 10h49q10 0 10 -10l-113 -176q-3 -4 -8 -10t-18 -6z" />
    <glyph glyph-name="ucircumflex" unicode="&#xfb;" horiz-adv-x="561" 
d="M290 -10q-89 0 -131.5 18.5t-59.5 55.5t-17 101v360q0 10 10 10h51q10 0 10 -10v-352q0 -45 11.5 -74t43 -40t82.5 -11q62 0 102 9q10 3 10 11v457q0 10 10 10h51q10 0 10 -10v-506q0 -8 -10 -10q-38 -8 -88.5 -13.5t-84.5 -5.5zM436 612h-20q-5 0 -13.5 1t-17.5 13
l-94 123q-3 3 -9 3t-11 -3l-96 -123q-3 -4 -8.5 -9t-17.5 -5h-24q-10 0 -9 8l123 176q7 10 15 10h55q8 0 15 -10l121 -176q3 -8 -9 -8z" />
    <glyph glyph-name="udieresis" unicode="&#xfc;" horiz-adv-x="561" 
d="M290 -10q-89 0 -131.5 18.5t-59.5 55.5t-17 101v360q0 10 10 10h51q10 0 10 -10v-352q0 -45 11.5 -74t43 -40t82.5 -11q62 0 102 9q10 3 10 11v457q0 10 10 10h51q10 0 10 -10v-506q0 -8 -10 -10q-38 -8 -88.5 -13.5t-84.5 -5.5zM218 649h-56q-10 0 -10 10v59q0 10 10 10
h56q10 0 10 -10v-59q0 -10 -10 -10zM410 649h-56q-10 0 -10 10v59q0 10 10 10h56q10 0 10 -10v-59q0 -10 -10 -10z" />
    <glyph glyph-name="yacute" unicode="&#xfd;" horiz-adv-x="469" 
d="M226 5q0 4 -8 4h-19q-16 0 -21 12q-30 81 -87.5 267.5t-68.5 237.5q0 9 9 9h57q7 0 9 -9q20 -90 61.5 -234t68.5 -221q2 -6 11 -6t13 8q59 177 125 453q2 9 13 9h50q8 0 8 -10q-9 -47 -64.5 -232.5t-83.5 -264.5q-27 -78 -50.5 -121t-57 -65t-94.5 -22q-31 0 -46 4
q-6 1 -6 10v32q1 8 8 8l23 -1q34 0 58 6t39.5 22t27 38.5t21.5 50.5q4 9 4 15zM234 610h-20q-4 0 -7 2.5t-2 5.5l94 184q7 10 15 10h49q10 0 10 -10l-113 -176q-3 -4 -8 -10t-18 -6z" />
    <glyph glyph-name="thorn" unicode="&#xfe;" horiz-adv-x="563" 
d="M160 461v-351l1 -39q1 -5 26.5 -10.5t71.5 -5.5q49 0 84.5 13t56 54.5t20.5 154.5q0 79 -12 123t-43.5 65.5t-101.5 21.5q-103 0 -103 -26zM90 -170v894q0 10 10 10h50q10 0 10 -10v-181q0 -8 7 -8q54 7 105 7q78 0 125 -21.5t71.5 -75t24.5 -163.5q0 -111 -24 -170
t-74.5 -86t-135.5 -27q-16 0 -51 3.5t-43 3.5q-5 0 -5 -6v-170q0 -10 -10 -10h-50q-10 0 -10 10z" />
    <glyph glyph-name="ydieresis" unicode="&#xff;" horiz-adv-x="469" 
d="M226 5q0 4 -8 4h-19q-16 0 -21 12q-30 81 -87.5 267.5t-68.5 237.5q0 9 9 9h57q7 0 9 -9q20 -90 61.5 -234t68.5 -221q2 -6 11 -6t13 8q59 177 125 453q2 9 13 9h50q8 0 8 -10q-9 -47 -64.5 -232.5t-83.5 -264.5q-27 -78 -50.5 -121t-57 -65t-94.5 -22q-31 0 -46 4
q-6 1 -6 10v32q1 8 8 8l23 -1q34 0 58 6t39.5 22t27 38.5t21.5 50.5q4 9 4 15zM172 649h-56q-10 0 -10 10v59q0 10 10 10h56q10 0 10 -10v-59q0 -10 -10 -10zM364 649h-56q-10 0 -10 10v59q0 10 10 10h56q10 0 10 -10v-59q0 -10 -10 -10z" />
    <glyph glyph-name="Amacron" unicode="&#x100;" horiz-adv-x="532" 
d="M394 184q-1 7 -8 7h-242q-8 0 -10 -7q0 -2 -2.5 -9t-19.5 -69t-25 -96q-4 -10 -13 -10h-55q-4 0 -6 3t-1 7q26 97 94 331t98 329q3 10 12 10h109q9 0 12 -10q30 -102 97 -345t85 -315q1 -4 -1 -7t-6 -3h-61q-10 0 -12 10q-30 124 -45 174zM161 249h209q8 0 8 8
q-46 187 -92 354q-1 2 -2.5 4.5t-15.5 2.5q-4 0 -9.5 -0.5t-7.5 -6.5q-2 -7 -8.5 -28.5t-36 -127t-53.5 -198.5q0 -8 8 -8zM393 763h-244q-10 0 -10 10v36q0 10 10 10h244q10 0 10 -10v-36q0 -10 -10 -10z" />
    <glyph glyph-name="amacron" unicode="&#x101;" horiz-adv-x="528" 
d="M249 487q-61 0 -125 -12q-11 -2 -12 6l-6 33q-2 10 6 13q62 18 150 18q93 0 134.5 -38t41.5 -125v-361q0 -12 -12 -16q-52 -15 -147 -15q-78 0 -123.5 12t-68.5 42t-23 92q0 58 14.5 88.5t50 48t101.5 23.5l134 13q6 2 6 7v54q0 66 -26 91.5t-95 25.5zM370 56v189
q0 6 -6 6h-110q-45 0 -70 -8.5t-37 -30t-12 -68.5q0 -40 10 -61.5t37 -31t92 -9.5q64 0 86 6q10 3 10 8zM401 657h-244q-10 0 -10 10v36q0 10 10 10h244q10 0 10 -10v-36q0 -10 -10 -10z" />
    <glyph glyph-name="Abreve" unicode="&#x102;" horiz-adv-x="532" 
d="M394 184q-1 7 -8 7h-242q-8 0 -10 -7q0 -2 -2.5 -9t-19.5 -69t-25 -96q-4 -10 -13 -10h-55q-4 0 -6 3t-1 7q26 97 94 331t98 329q3 10 12 10h109q9 0 12 -10q30 -102 97 -345t85 -315q1 -4 -1 -7t-6 -3h-61q-10 0 -12 10q-30 124 -45 174zM161 249h209q8 0 8 8
q-46 187 -92 354q-1 2 -2.5 4.5t-15.5 2.5q-4 0 -9.5 -0.5t-7.5 -6.5q-2 -7 -8.5 -28.5t-36 -127t-53.5 -198.5q0 -8 8 -8zM271 788q52 0 71.5 16t19.5 62q0 10 10 10h30q10 0 10 -9q0 -73 -32 -101t-110 -28t-109.5 28t-31.5 101q0 9 10 9h30q11 0 11 -10q0 -46 19 -62
t72 -16z" />
    <glyph glyph-name="abreve" unicode="&#x103;" horiz-adv-x="528" 
d="M249 487q-61 0 -125 -12q-11 -2 -12 6l-6 33q-2 10 6 13q62 18 150 18q93 0 134.5 -38t41.5 -125v-361q0 -12 -12 -16q-52 -15 -147 -15q-78 0 -123.5 12t-68.5 42t-23 92q0 58 14.5 88.5t50 48t101.5 23.5l134 13q6 2 6 7v54q0 66 -26 91.5t-95 25.5zM370 56v189
q0 6 -6 6h-110q-45 0 -70 -8.5t-37 -30t-12 -68.5q0 -40 10 -61.5t37 -31t92 -9.5q64 0 86 6q10 3 10 8zM277 672q54 0 72.5 18.5t18.5 66.5q0 10 10 10h30q10 0 10 -9q0 -75 -31.5 -105.5t-110.5 -30.5q-80 0 -110.5 30.5t-30.5 105.5q0 9 10 9h30q11 0 11 -10
q0 -37 9.5 -55t31 -24t50.5 -6z" />
    <glyph glyph-name="Aogonek" unicode="&#x104;" horiz-adv-x="532" 
d="M414 -128q0 -25 12 -36t36 -11q25 0 45 4l12 2q5 0 5 -10v-16q0 -9 -7 -12q-29 -10 -67 -10q-46 0 -69.5 19t-23.5 65q0 35 20 68t62 72v3q-30 124 -45 174q-1 7 -8 7h-242q-8 0 -10 -7q0 -2 -2.5 -9t-19.5 -69t-25 -96q-4 -10 -13 -10h-55q-4 0 -6 3t-1 7q26 97 94 331
t98 329q3 10 12 10h109q9 0 12 -10q30 -102 97 -345t85 -315q1 -4 -1 -7t-6 -3h-29q-38 -40 -53.5 -68t-15.5 -60zM161 249h209q8 0 8 8q-46 187 -92 354q-1 2 -2.5 4.5t-15.5 2.5q-4 0 -9.5 -0.5t-7.5 -6.5q-2 -7 -8.5 -28.5t-36 -127t-53.5 -198.5q0 -8 8 -8z" />
    <glyph glyph-name="aogonek" unicode="&#x105;" horiz-adv-x="528" 
d="M349 -128q0 -25 12 -36t36 -11q25 0 45 4l12 2q5 0 5 -10v-16q0 -9 -7 -12q-29 -10 -67 -10q-46 0 -69.5 19t-23.5 65q0 32 16.5 62.5t51.5 64.5q-33 -4 -81 -4q-78 0 -123.5 12t-68.5 42t-23 92q0 58 14.5 88.5t50 48t101.5 23.5l134 13q6 2 6 7v54q0 66 -26 91.5
t-95 25.5q-61 0 -125 -12q-11 -2 -12 6l-6 33q-2 10 6 13q62 18 150 18q93 0 134.5 -38t41.5 -125v-356q0 -8 -14 -22q-39 -37 -57 -68t-18 -64zM370 56v189q0 6 -6 6h-110q-45 0 -70 -8.5t-37 -30t-12 -68.5q0 -40 10 -61.5t37 -31t92 -9.5q64 0 86 6q10 3 10 8z" />
    <glyph glyph-name="Cacute" unicode="&#x106;" horiz-adv-x="484" 
d="M441 7q-23 -7 -59.5 -12t-70.5 -5q-83 0 -135.5 35t-80 108t-27.5 202q0 83 13.5 148.5t42 111.5t76 70.5t113.5 24.5q78 0 125 -17q5 -2 5 -9l-4 -48q0 -2 -2.5 -4t-5.5 -1q-20 7 -51 12t-58 5q-40 0 -75 -12t-58 -43.5t-34.5 -86.5t-11.5 -152q0 -131 23 -187t62.5 -76
t93.5 -20q24 0 57 4.5t51 9.5q10 2 11 -4l4 -43q1 -4 -0.5 -7t-3.5 -4zM284 742h-27q-4 0 -6 3.5t1 6.5l131 142q10 10 19 10h58q11 0 11.5 -6.5t-3.5 -9.5l-152 -135q-3 -3 -9.5 -7t-22.5 -4z" />
    <glyph glyph-name="cacute" unicode="&#x107;" horiz-adv-x="418" 
d="M380 4q-45 -14 -100 -14q-57 0 -98 17.5t-66.5 52.5t-37 86t-11.5 118q0 101 25 161.5t71.5 90t118.5 29.5q61 0 96 -14q4 -1 4 -7l-4 -43q-1 -5 -7 -4q-33 12 -83 12q-51 0 -82.5 -21t-48 -68t-16.5 -137q0 -113 32.5 -164.5t112.5 -51.5q40 0 84 12q7 2 8 -3l5 -44
q1 -7 -3 -8zM257 610h-20q-4 0 -7 2.5t-2 5.5l94 184q7 10 15 10h49q10 0 10 -10l-113 -176q-3 -4 -8 -10t-18 -6z" />
    <glyph glyph-name="Ccircumflex" unicode="&#x108;" horiz-adv-x="484" 
d="M441 7q-23 -7 -59.5 -12t-70.5 -5q-83 0 -135.5 35t-80 108t-27.5 202q0 83 13.5 148.5t42 111.5t76 70.5t113.5 24.5q78 0 125 -17q5 -2 5 -9l-4 -48q0 -2 -2.5 -4t-5.5 -1q-20 7 -51 12t-58 5q-40 0 -75 -12t-58 -43.5t-34.5 -86.5t-11.5 -152q0 -131 23 -187t62.5 -76
t93.5 -20q24 0 57 4.5t51 9.5q10 2 11 -4l4 -43q1 -4 -0.5 -7t-3.5 -4zM455 742h-22q-6 0 -16 0.5t-20 11.5l-87 92q-3 3 -9 3q-7 0 -10 -3l-89 -92q-3 -3 -9.5 -7.5t-23.5 -4.5h-24q-4 0 -7 2.5t-2 6.5l122 144q7 9 15 9h55q8 0 15 -9l121 -144q1 -4 -2 -6.5t-7 -2.5z" />
    <glyph glyph-name="ccircumflex" unicode="&#x109;" horiz-adv-x="418" 
d="M380 4q-45 -14 -100 -14q-57 0 -98 17.5t-66.5 52.5t-37 86t-11.5 118q0 101 25 161.5t71.5 90t118.5 29.5q61 0 96 -14q4 -1 4 -7l-4 -43q-1 -5 -7 -4q-33 12 -83 12q-51 0 -82.5 -21t-48 -68t-16.5 -137q0 -113 32.5 -164.5t112.5 -51.5q40 0 84 12q7 2 8 -3l5 -44
q1 -7 -3 -8zM422 612h-20q-5 0 -13.5 1t-17.5 13l-94 123q-3 3 -9 3t-11 -3l-96 -123q-3 -4 -8.5 -9t-17.5 -5h-24q-10 0 -9 8l123 176q7 10 15 10h55q8 0 15 -10l121 -176q3 -8 -9 -8z" />
    <glyph glyph-name="Cdotaccent" unicode="&#x10a;" horiz-adv-x="484" 
d="M441 7q-23 -7 -59.5 -12t-70.5 -5q-83 0 -135.5 35t-80 108t-27.5 202q0 83 13.5 148.5t42 111.5t76 70.5t113.5 24.5q78 0 125 -17q5 -2 5 -9l-4 -48q0 -2 -2.5 -4t-5.5 -1q-20 7 -51 12t-58 5q-40 0 -75 -12t-58 -43.5t-34.5 -86.5t-11.5 -152q0 -131 23 -187t62.5 -76
t93.5 -20q24 0 57 4.5t51 9.5q10 2 11 -4l4 -43q1 -4 -0.5 -7t-3.5 -4zM347 762h-61q-10 0 -10 10v63q0 10 10 10h61q10 0 10 -10v-63q0 -10 -10 -10z" />
    <glyph glyph-name="cdotaccent" unicode="&#x10b;" horiz-adv-x="418" 
d="M380 4q-45 -14 -100 -14q-57 0 -98 17.5t-66.5 52.5t-37 86t-11.5 118q0 101 25 161.5t71.5 90t118.5 29.5q61 0 96 -14q4 -1 4 -7l-4 -43q-1 -5 -7 -4q-33 12 -83 12q-51 0 -82.5 -21t-48 -68t-16.5 -137q0 -113 32.5 -164.5t112.5 -51.5q40 0 84 12q7 2 8 -3l5 -44
q1 -7 -3 -8zM301 646h-61q-10 0 -10 10v64q0 10 10 10h61q10 0 10 -10v-64q0 -10 -10 -10z" />
    <glyph glyph-name="Ccaron" unicode="&#x10c;" horiz-adv-x="484" 
d="M441 7q-23 -7 -59.5 -12t-70.5 -5q-83 0 -135.5 35t-80 108t-27.5 202q0 83 13.5 148.5t42 111.5t76 70.5t113.5 24.5q78 0 125 -17q5 -2 5 -9l-4 -48q0 -2 -2.5 -4t-5.5 -1q-20 7 -51 12t-58 5q-40 0 -75 -12t-58 -43.5t-34.5 -86.5t-11.5 -152q0 -131 23 -187t62.5 -76
t93.5 -20q24 0 57 4.5t51 9.5q10 2 11 -4l4 -43q1 -4 -0.5 -7t-3.5 -4zM160 892h22q5 0 15.5 -1t19.5 -12l87 -92l9 -2l11 2l89 92q3 3 9.5 8t23.5 5h23q4 0 7 -3t2 -6l-122 -144q-2 -3 -7 -6t-8 -3h-55q-3 0 -8 3t-7 6l-120 144q-1 3 2 6t7 3z" />
    <glyph glyph-name="ccaron" unicode="&#x10d;" horiz-adv-x="418" 
d="M380 4q-45 -14 -100 -14q-57 0 -98 17.5t-66.5 52.5t-37 86t-11.5 118q0 101 25 161.5t71.5 90t118.5 29.5q61 0 96 -14q4 -1 4 -7l-4 -43q-1 -5 -7 -4q-33 12 -83 12q-51 0 -82.5 -21t-48 -68t-16.5 -137q0 -113 32.5 -164.5t112.5 -51.5q40 0 84 12q7 2 8 -3l5 -44
q1 -7 -3 -8zM116 798h20q4 0 12.5 -1t18.5 -13l94 -123q3 -3 9 -3q7 0 11 3l96 123q3 4 8.5 9t17.5 5h24q4 0 7 -2.5t2 -5.5l-123 -176q-7 -10 -15 -10h-55q-8 0 -15 10l-121 176q-1 3 2 5.5t7 2.5z" />
    <glyph glyph-name="Dcaron" unicode="&#x10e;" horiz-adv-x="627" 
d="M484 345q0 147 -44 212t-131 65h-137q-6 0 -6 -6v-552q0 -6 5 -6h139q85 0 129.5 68.5t44.5 218.5zM103 680h217q120 0 179.5 -83t59.5 -255t-60.5 -257t-178.5 -85h-217q-10 0 -10 10v660q0 10 10 10zM137 892h22q5 0 15.5 -1t19.5 -12l87 -92l9 -2l11 2l89 92
q3 3 9.5 8t23.5 5h23q4 0 7 -3t2 -6l-122 -144q-2 -3 -7 -6t-8 -3h-55q-3 0 -8 3t-7 6l-120 144q-1 3 2 6t7 3z" />
    <glyph glyph-name="dcaron" unicode="&#x10f;" horiz-adv-x="560" 
d="M306 -10q-88 0 -139 26t-75 83t-24 168q0 110 27 168.5t77.5 84t132.5 25.5q29 0 89 -9q7 0 7 8v181q0 10 10 10h51q10 0 10 -10v-706q0 -8 -10 -11q-70 -18 -156 -18zM401 69v395q0 12 -8 14q-14 4 -40.5 7t-47.5 3q-61 0 -95.5 -17.5t-51 -61.5t-16.5 -142
q0 -81 11.5 -127t44.5 -70t108 -24q55 0 86 9q9 3 9 14zM557 618h-20q-4 0 -6.5 2.5t-1.5 5.5l48 191q3 10 14 10h44q5 0 8 -3.5t2 -7.5l-63 -181q-2 -6 -6 -11.5t-19 -5.5z" />
    <glyph glyph-name="Dcroat" unicode="&#x110;" horiz-adv-x="627" 
d="M103 680h217q120 0 179.5 -83t59.5 -255t-60.5 -257t-178.5 -85h-217q-10 0 -10 10v308q0 2 -2 3.5t-4 1.5h-60q-10 0 -10 10v32q0 10 10 10h60q6 0 6 4v291q0 10 10 10zM484 345q0 147 -44 212t-131 65h-137q-6 0 -6 -6v-235q0 -6 6 -6h105q10 0 10 -10v-32
q0 -10 -10 -10h-105q-6 0 -6 -6v-253q0 -6 5 -6h139q85 0 129.5 68.5t44.5 218.5z" />
    <glyph glyph-name="dcroat" unicode="&#x111;" horiz-adv-x="560" 
d="M306 -10q-88 0 -139 26t-75 83t-24 168q0 110 27 168.5t77.5 84t132.5 25.5q29 0 89 -9q7 0 7 8v59q0 2 -2.5 4t-4.5 2h-109q-10 0 -10 10v31q0 10 10 10h109q2 0 4.5 2t2.5 4v59q0 10 10 10h51q10 0 10 -10v-59q0 -6 7 -6h46q10 0 10 -10v-31q0 -10 -10 -10h-46
q-7 0 -7 -6v-584q0 -8 -10 -11q-70 -18 -156 -18zM401 69v395q0 12 -8 14q-14 4 -40.5 7t-47.5 3q-61 0 -95.5 -17.5t-51 -61.5t-16.5 -142q0 -81 11.5 -127t44.5 -70t108 -24q55 0 86 9q9 3 9 14z" />
    <glyph glyph-name="Emacron" unicode="&#x112;" horiz-adv-x="478" 
d="M93 10v660q0 10 10 10h303q10 0 10 -10v-42q0 -10 -10 -10h-234q-6 0 -6 -6v-225q0 -6 6 -6h221q10 0 10 -10v-38q0 -10 -10 -10h-221q-6 0 -6 -6v-249q0 -6 6 -6h252q10 0 10 -10v-42q0 -10 -10 -10h-321q-10 0 -10 10zM386 763h-244q-10 0 -10 10v36q0 10 10 10h244
q10 0 10 -10v-36q0 -10 -10 -10z" />
    <glyph glyph-name="emacron" unicode="&#x113;" horiz-adv-x="540" 
d="M140 310q0 -7 6 -7h255q7 0 9.5 6t2.5 29q0 79 -28.5 115.5t-101.5 36.5q-71 0 -107 -43.5t-36 -136.5zM460 17q-29 -12 -69.5 -19.5t-80.5 -7.5q-123 0 -183 64.5t-60 213.5q0 61 11 111.5t36 87.5t67 57.5t102 20.5q74 0 116.5 -25.5t61 -73t18.5 -130.5v-22
q0 -21 -4.5 -33t-21.5 -12h-307q-6 0 -6 -7q0 -106 42.5 -150.5t141.5 -44.5q30 0 66 7t59 17q13 5 14 -5l4 -37q0 -8 -7 -12zM402 657h-244q-10 0 -10 10v36q0 10 10 10h244q10 0 10 -10v-36q0 -10 -10 -10z" />
    <glyph glyph-name="Ebreve" unicode="&#x114;" horiz-adv-x="478" 
d="M93 10v660q0 10 10 10h303q10 0 10 -10v-42q0 -10 -10 -10h-234q-6 0 -6 -6v-225q0 -6 6 -6h221q10 0 10 -10v-38q0 -10 -10 -10h-221q-6 0 -6 -6v-249q0 -6 6 -6h252q10 0 10 -10v-42q0 -10 -10 -10h-321q-10 0 -10 10zM267 788q52 0 71.5 16t19.5 62q0 10 10 10h30
q10 0 10 -9q0 -73 -32 -101t-110 -28t-109.5 28t-31.5 101q0 9 10 9h30q11 0 11 -10q0 -46 19 -62t72 -16z" />
    <glyph glyph-name="ebreve" unicode="&#x115;" horiz-adv-x="540" 
d="M140 310q0 -7 6 -7h255q7 0 9.5 6t2.5 29q0 79 -28.5 115.5t-101.5 36.5q-71 0 -107 -43.5t-36 -136.5zM460 17q-29 -12 -69.5 -19.5t-80.5 -7.5q-123 0 -183 64.5t-60 213.5q0 61 11 111.5t36 87.5t67 57.5t102 20.5q74 0 116.5 -25.5t61 -73t18.5 -130.5v-22
q0 -21 -4.5 -33t-21.5 -12h-307q-6 0 -6 -7q0 -106 42.5 -150.5t141.5 -44.5q30 0 66 7t59 17q13 5 14 -5l4 -37q0 -8 -7 -12zM280 672q54 0 72.5 18.5t18.5 66.5q0 10 10 10h30q10 0 10 -9q0 -75 -31.5 -105.5t-110.5 -30.5q-80 0 -110.5 30.5t-30.5 105.5q0 9 10 9h30
q11 0 11 -10q0 -37 9.5 -55t31 -24t50.5 -6z" />
    <glyph glyph-name="Edotaccent" unicode="&#x116;" horiz-adv-x="478" 
d="M93 10v660q0 10 10 10h303q10 0 10 -10v-42q0 -10 -10 -10h-234q-6 0 -6 -6v-225q0 -6 6 -6h221q10 0 10 -10v-38q0 -10 -10 -10h-221q-6 0 -6 -6v-249q0 -6 6 -6h252q10 0 10 -10v-42q0 -10 -10 -10h-321q-10 0 -10 10zM304 762h-61q-10 0 -10 10v63q0 10 10 10h61
q10 0 10 -10v-63q0 -10 -10 -10z" />
    <glyph glyph-name="edotaccent" unicode="&#x117;" horiz-adv-x="540" 
d="M140 310q0 -7 6 -7h255q7 0 9.5 6t2.5 29q0 79 -28.5 115.5t-101.5 36.5q-71 0 -107 -43.5t-36 -136.5zM460 17q-29 -12 -69.5 -19.5t-80.5 -7.5q-123 0 -183 64.5t-60 213.5q0 61 11 111.5t36 87.5t67 57.5t102 20.5q74 0 116.5 -25.5t61 -73t18.5 -130.5v-22
q0 -21 -4.5 -33t-21.5 -12h-307q-6 0 -6 -7q0 -106 42.5 -150.5t141.5 -44.5q30 0 66 7t59 17q13 5 14 -5l4 -37q0 -8 -7 -12zM310 646h-61q-10 0 -10 10v64q0 10 10 10h61q10 0 10 -10v-64q0 -10 -10 -10z" />
    <glyph glyph-name="Eogonek" unicode="&#x118;" horiz-adv-x="478" 
d="M337 -128q0 -25 12 -36t36 -11q25 0 45 4l12 2q5 0 5 -10v-16q0 -9 -7 -12q-29 -10 -67 -10q-46 0 -69.5 19t-23.5 65q0 33 18 64.5t56 68.5h-251q-10 0 -10 10v660q0 10 10 10h303q10 0 10 -10v-42q0 -10 -10 -10h-234q-6 0 -6 -6v-225q0 -6 6 -6h221q10 0 10 -10v-38
q0 -10 -10 -10h-221q-6 0 -6 -6v-249q0 -6 6 -6h252q10 0 10 -10v-42q0 -10 -10 -10h-18q-38 -40 -53.5 -68t-15.5 -60z" />
    <glyph glyph-name="eogonek" unicode="&#x119;" horiz-adv-x="540" 
d="M365 -128q0 -25 12 -36t36 -11q25 0 45 4l12 2q5 0 5 -10v-16q0 -9 -7 -12q-29 -10 -67 -10q-46 0 -69.5 19t-23.5 65q0 24 12.5 54t56.5 74q-35 -5 -67 -5q-123 0 -183 64.5t-60 213.5q0 61 11 111.5t36 87.5t67 57.5t102 20.5q74 0 116.5 -25.5t61 -73t18.5 -130.5v-22
q0 -21 -4.5 -33t-21.5 -12h-307q-6 0 -6 -7q0 -106 42.5 -150.5t141.5 -44.5q30 0 66 7t59 17q13 5 14 -5l4 -37q0 -8 -7 -12q-14 -6 -26 -18q-37 -37 -53 -65.5t-16 -61.5zM140 310q0 -7 6 -7h255q7 0 9.5 6t2.5 29q0 79 -28.5 115.5t-101.5 36.5q-71 0 -107 -43.5
t-36 -136.5z" />
    <glyph glyph-name="Ecaron" unicode="&#x11a;" horiz-adv-x="478" 
d="M93 10v660q0 10 10 10h303q10 0 10 -10v-42q0 -10 -10 -10h-234q-6 0 -6 -6v-225q0 -6 6 -6h221q10 0 10 -10v-38q0 -10 -10 -10h-221q-6 0 -6 -6v-249q0 -6 6 -6h252q10 0 10 -10v-42q0 -10 -10 -10h-321q-10 0 -10 10zM114 892h22q5 0 15.5 -1t19.5 -12l87 -92l9 -2
l11 2l89 92q3 3 9.5 8t23.5 5h23q4 0 7 -3t2 -6l-122 -144q-2 -3 -7 -6t-8 -3h-55q-3 0 -8 3t-7 6l-120 144q-1 3 2 6t7 3z" />
    <glyph glyph-name="ecaron" unicode="&#x11b;" horiz-adv-x="540" 
d="M140 310q0 -7 6 -7h255q7 0 9.5 6t2.5 29q0 79 -28.5 115.5t-101.5 36.5q-71 0 -107 -43.5t-36 -136.5zM460 17q-29 -12 -69.5 -19.5t-80.5 -7.5q-123 0 -183 64.5t-60 213.5q0 61 11 111.5t36 87.5t67 57.5t102 20.5q74 0 116.5 -25.5t61 -73t18.5 -130.5v-22
q0 -21 -4.5 -33t-21.5 -12h-307q-6 0 -6 -7q0 -106 42.5 -150.5t141.5 -44.5q30 0 66 7t59 17q13 5 14 -5l4 -37q0 -8 -7 -12zM123 798h20q4 0 12.5 -1t18.5 -13l94 -123q3 -3 9 -3q7 0 11 3l96 123q3 4 8.5 9t17.5 5h24q4 0 7 -2.5t2 -5.5l-123 -176q-7 -10 -15 -10h-55
q-8 0 -15 10l-121 176q-1 3 2 5.5t7 2.5z" />
    <glyph glyph-name="Gcircumflex" unicode="&#x11c;" horiz-adv-x="581" 
d="M334 50q24 0 51 2.5t40 7.5q7 2 8 8v236q0 6 -6 6h-108q-10 0 -10 10v42q0 10 10 10h175q10 0 10 -10v-333q0 -10 -13 -16q-25 -10 -69 -16.5t-94 -6.5q-88 0 -144.5 35.5t-86 109.5t-29.5 200q0 103 21.5 171.5t57.5 109.5t84 57.5t97 16.5q87 0 148 -17q8 -3 8 -9
l-4 -48q0 -6 -7 -5q-26 7 -64 12t-72 5q-54 0 -91.5 -18.5t-60 -54.5t-32.5 -91t-10 -130q0 -108 20.5 -168t62 -88t108.5 -28zM472 742h-22q-6 0 -16 0.5t-20 11.5l-87 92q-3 3 -9 3q-7 0 -10 -3l-89 -92q-3 -3 -9.5 -7.5t-23.5 -4.5h-24q-4 0 -7 2.5t-2 6.5l122 144
q7 9 15 9h55q8 0 15 -9l121 -144q1 -4 -2 -6.5t-7 -2.5z" />
    <glyph glyph-name="gcircumflex" unicode="&#x11d;" horiz-adv-x="560" 
d="M473 516v-509q0 -96 -43 -141.5t-163 -45.5q-39 0 -90 6t-81 16q-7 3 -5 12l6 35q1 2 4 5t10 1q26 -9 71 -14.5t77 -5.5q68 0 96.5 15.5t38 47.5t9.5 91q0 7 -7 7q-44 -7 -93 -7q-101 0 -148.5 28.5t-66 82.5t-18.5 144q0 103 26.5 158t76 79t128.5 24q80 0 162 -17
q10 -3 10 -12zM302 83q67 0 92 9q8 2 8 14v361q0 10 -9 12q-36 9 -93 9q-58 0 -90.5 -15.5t-49 -56t-16.5 -129.5q0 -77 10.5 -119t42 -63.5t105.5 -21.5zM458 612h-20q-5 0 -13.5 1t-17.5 13l-94 123q-3 3 -9 3t-11 -3l-96 -123q-3 -4 -8.5 -9t-17.5 -5h-24q-10 0 -9 8
l123 176q7 10 15 10h55q8 0 15 -10l121 -176q3 -8 -9 -8z" />
    <glyph glyph-name="Gbreve" unicode="&#x11e;" horiz-adv-x="581" 
d="M334 50q24 0 51 2.5t40 7.5q7 2 8 8v236q0 6 -6 6h-108q-10 0 -10 10v42q0 10 10 10h175q10 0 10 -10v-333q0 -10 -13 -16q-25 -10 -69 -16.5t-94 -6.5q-88 0 -144.5 35.5t-86 109.5t-29.5 200q0 103 21.5 171.5t57.5 109.5t84 57.5t97 16.5q87 0 148 -17q8 -3 8 -9
l-4 -48q0 -6 -7 -5q-26 7 -64 12t-72 5q-54 0 -91.5 -18.5t-60 -54.5t-32.5 -91t-10 -130q0 -108 20.5 -168t62 -88t108.5 -28zM325 788q52 0 71.5 16t19.5 62q0 10 10 10h30q10 0 10 -9q0 -73 -32 -101t-110 -28t-109.5 28t-31.5 101q0 9 10 9h30q11 0 11 -10q0 -46 19 -62
t72 -16z" />
    <glyph glyph-name="gbreve" unicode="&#x11f;" horiz-adv-x="560" 
d="M473 516v-509q0 -96 -43 -141.5t-163 -45.5q-39 0 -90 6t-81 16q-7 3 -5 12l6 35q1 2 4 5t10 1q26 -9 71 -14.5t77 -5.5q68 0 96.5 15.5t38 47.5t9.5 91q0 7 -7 7q-44 -7 -93 -7q-101 0 -148.5 28.5t-66 82.5t-18.5 144q0 103 26.5 158t76 79t128.5 24q80 0 162 -17
q10 -3 10 -12zM302 83q67 0 92 9q8 2 8 14v361q0 10 -9 12q-36 9 -93 9q-58 0 -90.5 -15.5t-49 -56t-16.5 -129.5q0 -77 10.5 -119t42 -63.5t105.5 -21.5zM300 672q54 0 72.5 18.5t18.5 66.5q0 10 10 10h30q10 0 10 -9q0 -75 -31.5 -105.5t-110.5 -30.5q-80 0 -110.5 30.5
t-30.5 105.5q0 9 10 9h30q11 0 11 -10q0 -37 9.5 -55t31 -24t50.5 -6z" />
    <glyph glyph-name="Gdotaccent" unicode="&#x120;" horiz-adv-x="581" 
d="M334 50q24 0 51 2.5t40 7.5q7 2 8 8v236q0 6 -6 6h-108q-10 0 -10 10v42q0 10 10 10h175q10 0 10 -10v-333q0 -10 -13 -16q-25 -10 -69 -16.5t-94 -6.5q-88 0 -144.5 35.5t-86 109.5t-29.5 200q0 103 21.5 171.5t57.5 109.5t84 57.5t97 16.5q87 0 148 -17q8 -3 8 -9
l-4 -48q0 -6 -7 -5q-26 7 -64 12t-72 5q-54 0 -91.5 -18.5t-60 -54.5t-32.5 -91t-10 -130q0 -108 20.5 -168t62 -88t108.5 -28zM358 762h-61q-10 0 -10 10v63q0 10 10 10h61q10 0 10 -10v-63q0 -10 -10 -10z" />
    <glyph glyph-name="gdotaccent" unicode="&#x121;" horiz-adv-x="560" 
d="M473 516v-509q0 -96 -43 -141.5t-163 -45.5q-39 0 -90 6t-81 16q-7 3 -5 12l6 35q1 2 4 5t10 1q26 -9 71 -14.5t77 -5.5q68 0 96.5 15.5t38 47.5t9.5 91q0 7 -7 7q-44 -7 -93 -7q-101 0 -148.5 28.5t-66 82.5t-18.5 144q0 103 26.5 158t76 79t128.5 24q80 0 162 -17
q10 -3 10 -12zM302 83q67 0 92 9q8 2 8 14v361q0 10 -9 12q-36 9 -93 9q-58 0 -90.5 -15.5t-49 -56t-16.5 -129.5q0 -77 10.5 -119t42 -63.5t105.5 -21.5zM329 646h-61q-10 0 -10 10v64q0 10 10 10h61q10 0 10 -10v-64q0 -10 -10 -10z" />
    <glyph glyph-name="uni0122" unicode="&#x122;" horiz-adv-x="581" 
d="M334 50q24 0 51 2.5t40 7.5q7 2 8 8v236q0 6 -6 6h-108q-10 0 -10 10v42q0 10 10 10h175q10 0 10 -10v-333q0 -10 -13 -16q-25 -10 -69 -16.5t-94 -6.5q-88 0 -144.5 35.5t-86 109.5t-29.5 200q0 103 21.5 171.5t57.5 109.5t84 57.5t97 16.5q87 0 148 -17q8 -3 8 -9
l-4 -48q0 -6 -7 -5q-26 7 -64 12t-72 5q-54 0 -91.5 -18.5t-60 -54.5t-32.5 -91t-10 -130q0 -108 20.5 -168t62 -88t108.5 -28zM266 -234h-24q-4 0 -6 2t-1 5l72 159q5 10 13 10h48q4 0 7 -3t2 -7l-88 -151q-2 -4 -7 -9.5t-16 -5.5z" />
    <glyph glyph-name="uni0123" unicode="&#x123;" horiz-adv-x="560" 
d="M473 516v-509q0 -96 -43 -141.5t-163 -45.5q-39 0 -90 6t-81 16q-7 3 -5 12l6 35q1 2 4 5t10 1q26 -9 71 -14.5t77 -5.5q68 0 96.5 15.5t38 47.5t9.5 91q0 7 -7 7q-44 -7 -93 -7q-101 0 -148.5 28.5t-66 82.5t-18.5 144q0 103 26.5 158t76 79t128.5 24q80 0 162 -17
q10 -3 10 -12zM302 83q67 0 92 9q8 2 8 14v361q0 10 -9 12q-36 9 -93 9q-58 0 -90.5 -15.5t-49 -56t-16.5 -129.5q0 -77 10.5 -119t42 -63.5t105.5 -21.5zM351 803h22q4 0 6 -2.5t1 -5.5l-74 -169q-4 -9 -13 -9h-49q-4 0 -6 3t0 6l91 162q2 4 6.5 9.5t15.5 5.5z" />
    <glyph glyph-name="Hcircumflex" unicode="&#x124;" horiz-adv-x="619" 
d="M452 387v283q0 10 10 10h53q10 0 10 -10v-660q0 -10 -10 -10h-53q-10 0 -10 10v307q0 6 -6 6h-274q-6 0 -6 -6v-307q0 -10 -10 -10h-53q-10 0 -10 10v660q0 10 10 10h53q10 0 10 -10v-283q0 -6 6 -6h274q6 0 6 6zM459 742h-22q-6 0 -16 0.5t-20 11.5l-87 92q-3 3 -9 3
q-7 0 -10 -3l-89 -92q-3 -3 -9.5 -7.5t-23.5 -4.5h-24q-4 0 -7 2.5t-2 6.5l122 144q7 9 15 9h55q8 0 15 -9l121 -144q1 -4 -2 -6.5t-7 -2.5z" />
    <glyph glyph-name="hcircumflex" unicode="&#x125;" horiz-adv-x="562" 
d="M88 10v715q0 10 10 10h51q10 0 10 -10v-182q0 -9 9 -9q73 11 121 11q66 0 106 -13.5t62 -49t22 -110.5v-362q0 -10 -10 -10h-51q-10 0 -10 10v353q0 46 -9.5 72t-36 39.5t-86.5 13.5q-66 0 -107 -9q-10 -3 -10 -11v-458q0 -10 -10 -10h-51q-10 0 -10 10zM418 780h-22
q-6 0 -16 0.5t-20 11.5l-87 92q-3 3 -9 3q-7 0 -10 -3l-89 -92q-3 -3 -9.5 -7.5t-23.5 -4.5h-24q-4 0 -7 2.5t-2 6.5l122 144q7 9 15 9h55q8 0 15 -9l121 -144q1 -4 -2 -6.5t-7 -2.5z" />
    <glyph glyph-name="Hbar" unicode="&#x126;" horiz-adv-x="619" 
d="M452 570v100q0 10 10 10h53q10 0 10 -10v-102q0 -4 6 -4h48q10 0 10 -10v-31q0 -10 -10 -10h-48q-2 0 -4 -1.5t-2 -3.5v-498q0 -10 -10 -10h-53q-10 0 -10 10v307q0 6 -6 6h-274q-6 0 -6 -6v-307q0 -10 -10 -10h-53q-10 0 -10 10v498q-2 5 -6 5h-47q-10 0 -10 10v31
q0 10 10 10h47q6 0 6 6v100q0 10 10 10h53q10 0 10 -10v-100q0 -6 6 -6h274q6 0 6 6zM452 387v120q0 6 -6 6h-274q-2 0 -4 -1.5t-2 -3.5v-121q0 -6 6 -6h274q6 0 6 6z" />
    <glyph glyph-name="hbar" unicode="&#x127;" horiz-adv-x="562" 
d="M88 10v594q-2 5 -6 5h-41q-10 0 -10 10v31q0 10 10 10h41q5 0 6 4v61q0 10 10 10h51q10 0 10 -10v-59q0 -6 6 -6h116q10 0 10 -10v-31q0 -10 -10 -10h-116q-6 0 -6 -6v-60q0 -9 9 -9q73 11 121 11q66 0 106 -13.5t62 -49t22 -110.5v-362q0 -10 -10 -10h-51q-10 0 -10 10
v353q0 46 -9.5 72t-36 39.5t-86.5 13.5q-66 0 -107 -9q-10 -3 -10 -11v-458q0 -10 -10 -10h-51q-10 0 -10 10z" />
    <glyph glyph-name="Itilde" unicode="&#x128;" horiz-adv-x="260" 
d="M156 0h-53q-10 0 -10 10v660q0 10 10 10h53q10 0 10 -10v-660q0 -10 -10 -10zM144 820q38 -27 57 -27q33 0 39 53q0 5 6 5h35q6 0 6 -8q0 -26 -12.5 -52t-32.5 -37.5t-39 -11.5q-8 0 -26.5 3.5t-56.5 29.5q-36 25 -56 25q-34 0 -40 -50q0 -8 -6 -8h-35q-6 0 -6 9
q0 39 23.5 69.5t61.5 30.5q11 0 28.5 -3.5t53.5 -27.5z" />
    <glyph glyph-name="itilde" unicode="&#x129;" horiz-adv-x="264" 
d="M148 710q38 -27 57 -27q33 0 39 53q0 5 6 5h35q6 0 6 -8q0 -26 -12.5 -52t-32.5 -37.5t-39 -11.5q-8 0 -26.5 3.5t-56.5 29.5q-36 25 -56 25q-34 0 -40 -50q0 -8 -6 -8h-35q-6 0 -6 9q0 39 23.5 69.5t61.5 30.5q11 0 28.5 -3.5t53.5 -27.5zM157 0h-51q-10 0 -10 10v515
q0 10 10 10h51q10 0 10 -10v-515q0 -10 -10 -10z" />
    <glyph glyph-name="Imacron" unicode="&#x12a;" horiz-adv-x="260" 
d="M156 0h-53q-10 0 -10 10v660q0 10 10 10h53q10 0 10 -10v-660q0 -10 -10 -10zM252 763h-244q-10 0 -10 10v36q0 10 10 10h244q10 0 10 -10v-36q0 -10 -10 -10z" />
    <glyph glyph-name="imacron" unicode="&#x12b;" horiz-adv-x="264" 
d="M257 657h-244q-10 0 -10 10v36q0 10 10 10h244q10 0 10 -10v-36q0 -10 -10 -10zM157 0h-51q-10 0 -10 10v515q0 10 10 10h51q10 0 10 -10v-515q0 -10 -10 -10z" />
    <glyph glyph-name="Ibreve" unicode="&#x12c;" horiz-adv-x="260" 
d="M156 0h-53q-10 0 -10 10v660q0 10 10 10h53q10 0 10 -10v-660q0 -10 -10 -10zM131 788q52 0 71.5 16t19.5 62q0 10 10 10h30q10 0 10 -9q0 -73 -32 -101t-110 -28t-109.5 28t-31.5 101q0 9 10 9h30q11 0 11 -10q0 -46 19 -62t72 -16z" />
    <glyph glyph-name="ibreve" unicode="&#x12d;" horiz-adv-x="264" 
d="M134 672q54 0 72.5 18.5t18.5 66.5q0 10 10 10h30q10 0 10 -9q0 -75 -31.5 -105.5t-110.5 -30.5q-80 0 -110.5 30.5t-30.5 105.5q0 9 10 9h30q11 0 11 -10q0 -37 9.5 -55t31 -24t50.5 -6zM157 0h-51q-10 0 -10 10v515q0 10 10 10h51q10 0 10 -10v-515q0 -10 -10 -10z" />
    <glyph glyph-name="Iogonek" unicode="&#x12e;" horiz-adv-x="260" 
d="M81 -128q0 -25 12 -36t36 -11q25 0 45 4l12 2q5 0 5 -10v-16q0 -9 -7 -12q-29 -10 -67 -10q-46 0 -69.5 19t-23.5 65q0 25 13.5 56.5t61.5 76.5q-6 3 -6 10v660q0 10 10 10h53q10 0 10 -10v-660q0 -10 -10 -10h-6q-38 -40 -53.5 -68t-15.5 -60z" />
    <glyph glyph-name="iogonek" unicode="&#x12f;" horiz-adv-x="264" 
d="M83 -128q0 -25 12 -36t36 -11q25 0 45 4l12 2q5 0 5 -10v-16q0 -9 -7 -12q-29 -10 -67 -10q-46 0 -69.5 19t-23.5 65q0 25 13.5 56.5t61.5 77.5q-5 2 -5 9v515q0 10 10 10h51q10 0 10 -10v-515q0 -10 -10 -10h-5q-38 -40 -53.5 -68t-15.5 -60zM163 649h-62q-10 0 -10 10
v65q0 10 10 10h62q10 0 10 -10v-65q0 -10 -10 -10z" />
    <glyph glyph-name="Idotaccent" unicode="&#x130;" horiz-adv-x="260" 
d="M156 0h-53q-10 0 -10 10v660q0 10 10 10h53q10 0 10 -10v-660q0 -10 -10 -10zM163 762h-61q-10 0 -10 10v63q0 10 10 10h61q10 0 10 -10v-63q0 -10 -10 -10z" />
    <glyph glyph-name="dotlessi" unicode="&#x131;" horiz-adv-x="264" 
d="M157 0h-51q-10 0 -10 10v515q0 10 10 10h51q10 0 10 -10v-515q0 -10 -10 -10z" />
    <glyph glyph-name="Jcircumflex" unicode="&#x134;" horiz-adv-x="312" 
d="M149 170v500q0 10 10 10h53q10 0 10 -10v-503q0 -63 -11 -100.5t-39 -57t-89 -19.5q-14 0 -34 2.5t-28 4.5q-7 3 -6 13l4 39q2 8 12 6q20 -5 45 -5q51 0 62 26t11 94zM339 742h-22q-6 0 -16 0.5t-20 11.5l-87 92q-3 3 -9 3q-7 0 -10 -3l-89 -92q-3 -3 -9.5 -7.5
t-23.5 -4.5h-24q-4 0 -7 2.5t-2 6.5l122 144q7 9 15 9h55q8 0 15 -9l121 -144q1 -4 -2 -6.5t-7 -2.5z" />
    <glyph glyph-name="jcircumflex" unicode="&#x135;" horiz-adv-x="264" 
d="M97 -9v534q0 10 10 10h51q10 0 10 -10v-570q-1 -41 -10.5 -74t-38.5 -49t-84 -16q-76 0 -76 17q0 12 2.5 27.5t8.5 15.5l54 -5q22 0 39.5 5t25.5 29.5t8 85.5zM287 612h-20q-5 0 -13.5 1t-17.5 13l-94 123q-3 3 -9 3t-11 -3l-96 -123q-3 -4 -8.5 -9t-17.5 -5h-24
q-10 0 -9 8l123 176q7 10 15 10h55q8 0 15 -10l121 -176q3 -8 -9 -8z" />
    <glyph glyph-name="uni0136" unicode="&#x136;" horiz-adv-x="526" 
d="M175 326q-9 0 -9 -6v-310q0 -10 -10 -10h-53q-10 0 -10 10v660q0 10 10 10h53q10 0 10 -10v-282q0 -6 11 -6q26 0 31 8q40 52 110.5 147.5t95.5 132.5q7 10 14 10h63q10 0 7 -10q-66 -89 -222 -290q-11 -15 -11 -24q0 -8 11 -24q46 -60 130 -174t105 -147q1 -5 -1.5 -8
t-6.5 -3h-63q-10 0 -16 9q-28 43 -99.5 144.5t-116.5 159.5q-2 4 -7 8.5t-26 4.5zM211 -234h-24q-4 0 -6 2t-1 5l72 159q5 10 13 10h48q4 0 7 -3t2 -7l-88 -151q-2 -4 -7 -9.5t-16 -5.5z" />
    <glyph glyph-name="uni0137" unicode="&#x137;" horiz-adv-x="485" 
d="M176 322q17 0 24 7q94 99 173 197q8 9 19 9h59q4 0 7 -3t0 -8q-2 -2 -9 -11t-46 -52t-142 -151q-10 -9 -10 -16q0 -6 10 -18q4 -5 16.5 -20t76 -93.5t117.5 -150.5q4 -4 1.5 -8t-9.5 -4h-59q-12 0 -17 7l-8 11q-41 56 -98 131t-83 106q-6 8 -21 8q-7 0 -13 -1t-6 -8v-244
q0 -10 -10 -10h-51q-10 0 -10 10v715q0 10 9 10h53q9 0 9 -10v-394q0 -9 18 -9zM193 -234h-24q-4 0 -6 2t-1 5l72 159q5 10 13 10h48q4 0 7 -3t2 -7l-88 -151q-2 -4 -7 -9.5t-16 -5.5z" />
    <glyph glyph-name="kgreenlandic" unicode="&#x138;" horiz-adv-x="485" 
d="M176 322q17 0 24 7q94 99 173 197q8 9 19 9h59q4 0 7 -3t0 -8q-2 -2 -9 -11t-46 -52t-142 -151q-10 -9 -10 -16q0 -6 10 -18q4 -5 16.5 -20t76 -93.5t117.5 -150.5q4 -4 1.5 -8t-9.5 -4h-59q-12 0 -17 7l-8 11q-41 56 -98 131t-83 106q-6 8 -21 8q-7 0 -13 -1t-6 -8v-244
q0 -10 -10 -10h-51q-10 0 -10 10v515q0 10 9 10h53q9 0 9 -10v-194q0 -9 18 -9z" />
    <glyph glyph-name="Lacute" unicode="&#x139;" horiz-adv-x="400" 
d="M93 10v660q0 10 10 10h53q10 0 10 -10v-602q0 -6 6 -6h197q10 0 10 -10v-42q0 -10 -10 -10h-266q-10 0 -10 10zM132 742h-27q-4 0 -6 3.5t1 6.5l131 142q10 10 19 10h58q11 0 11.5 -6.5t-3.5 -9.5l-152 -135q-3 -3 -9.5 -7t-22.5 -4z" />
    <glyph glyph-name="lacute" unicode="&#x13a;" horiz-adv-x="276" 
d="M246 -2q-30 -7 -61 -7q-57 0 -78 28t-21 101v605q0 10 10 10h51q10 0 10 -10v-605q0 -44 9.5 -59t39.5 -15h41q9 0 9 -8l-2 -31q-2 -8 -8 -9zM112 780h-27q-4 0 -6 3.5t1 6.5l131 142q10 10 19 10h58q11 0 11.5 -6.5t-3.5 -9.5l-152 -135q-3 -3 -9.5 -7t-22.5 -4z" />
    <glyph glyph-name="uni013B" unicode="&#x13b;" horiz-adv-x="400" 
d="M93 10v660q0 10 10 10h53q10 0 10 -10v-602q0 -6 6 -6h197q10 0 10 -10v-42q0 -10 -10 -10h-266q-10 0 -10 10zM173 -234h-24q-4 0 -6 2t-1 5l72 159q5 10 13 10h48q4 0 7 -3t2 -7l-88 -151q-2 -4 -7 -9.5t-16 -5.5z" />
    <glyph glyph-name="uni013C" unicode="&#x13c;" horiz-adv-x="276" 
d="M246 -2q-30 -7 -61 -7q-57 0 -78 28t-21 101v605q0 10 10 10h51q10 0 10 -10v-605q0 -44 9.5 -59t39.5 -15h41q9 0 9 -8l-2 -31q-2 -8 -8 -9zM95 -234h-24q-4 0 -6 2t-1 5l72 159q5 10 13 10h48q4 0 7 -3t2 -7l-88 -151q-2 -4 -7 -9.5t-16 -5.5z" />
    <glyph glyph-name="Lcaron" unicode="&#x13d;" horiz-adv-x="400" 
d="M93 10v660q0 10 10 10h53q10 0 10 -10v-602q0 -6 6 -6h197q10 0 10 -10v-42q0 -10 -10 -10h-266q-10 0 -10 10zM291 618h-20q-4 0 -6.5 2.5t-1.5 5.5l48 191q3 10 14 10h44q5 0 8 -3.5t2 -7.5l-63 -181q-2 -6 -6 -11.5t-19 -5.5z" />
    <glyph glyph-name="lcaron" unicode="&#x13e;" horiz-adv-x="276" 
d="M246 -2q-30 -7 -61 -7q-57 0 -78 28t-21 101v605q0 10 10 10h51q10 0 10 -10v-605q0 -44 9.5 -59t39.5 -15h41q9 0 9 -8l-2 -31q-2 -8 -8 -9zM247 618h-20q-4 0 -6.5 2.5t-1.5 5.5l48 191q3 10 14 10h44q5 0 8 -3.5t2 -7.5l-63 -181q-2 -6 -6 -11.5t-19 -5.5z" />
    <glyph glyph-name="Ldot" unicode="&#x13f;" horiz-adv-x="454" 
d="M93 10v660q0 10 10 10h53q10 0 10 -10v-602q0 -6 6 -6h197q10 0 10 -10v-42q0 -10 -10 -10h-266q-10 0 -10 10zM393 386h-61q-10 0 -10 10v64q0 10 10 10h61q10 0 10 -10v-64q0 -10 -10 -10z" />
    <glyph glyph-name="ldot" unicode="&#x140;" horiz-adv-x="325" 
d="M246 -2q-30 -7 -61 -7q-57 0 -78 28t-21 101v605q0 10 10 10h51q10 0 10 -10v-605q0 -44 9.5 -59t39.5 -15h41q9 0 9 -8l-2 -31q-2 -8 -8 -9zM315 386h-61q-10 0 -10 10v64q0 10 10 10h61q10 0 10 -10v-64q0 -10 -10 -10z" />
    <glyph glyph-name="Lslash" unicode="&#x141;" horiz-adv-x="400" 
d="M93 10v300q-1 3 -6 1l-51 -24q-4 -2 -7 0.5t-3 6.5v36q0 8 10 13l51 24q6 3 6 9v294q0 10 10 10h53q10 0 10 -10v-264q3 -3 6 -1l76 39q4 2 7 -0.5t3 -6.5v-36q0 -8 -10 -13l-76 -39q-6 -4 -6 -7v-274q0 -6 6 -6h197q10 0 10 -10v-42q0 -10 -10 -10h-266q-10 0 -10 10z
" />
    <glyph glyph-name="lslash" unicode="&#x142;" horiz-adv-x="286" 
d="M251 -2q-30 -7 -61 -7q-57 0 -78 28t-21 101v200q-1 3 -6 1l-51 -24q-4 -2 -7 0.5t-3 6.5v35q0 8 10 13l51 24q6 3 6 9v340q0 10 10 10h51q10 0 10 -10v-310q0 -6 6 -3l68 35q4 2 7 -0.5t3 -6.5v-35q0 -8 -10 -13l-68 -35q-6 -4 -6 -7v-230q0 -44 9.5 -59t39.5 -15h41
q9 0 9 -8l-2 -31q-2 -8 -8 -9z" />
    <glyph glyph-name="Nacute" unicode="&#x143;" horiz-adv-x="635" 
d="M532 0h-101q-2 0 -6 1.5t-9 13.5l-232 575q-1 3 -4 8.5t-9 5.5q-2 0 -4.5 -1t-2.5 -12v-581q0 -10 -10 -10h-51q-10 0 -10 10v660q0 10 10 10h106q10 0 14 -12l228 -568q6 -14 13 -14q6 0 6 8v576q0 10 10 10h52q10 0 10 -10v-660q0 -10 -10 -10zM321 742h-27
q-4 0 -6 3.5t1 6.5l131 142q10 10 19 10h58q11 0 11.5 -6.5t-3.5 -9.5l-152 -135q-3 -3 -9.5 -7t-22.5 -4z" />
    <glyph glyph-name="nacute" unicode="&#x144;" horiz-adv-x="561" 
d="M274 545q75 0 118 -13.5t65 -48.5t22 -111v-362q0 -10 -10 -10h-51q-10 0 -10 10v355q0 45 -10 71t-37 39t-88 13q-64 0 -104 -9q-10 -3 -10 -11v-458q0 -10 -10 -10h-51q-10 0 -10 10v506q0 8 10 10q37 7 87.5 13t88.5 6zM272 610h-20q-4 0 -7 2.5t-2 5.5l94 184
q7 10 15 10h49q10 0 10 -10l-113 -176q-3 -4 -8 -10t-18 -6z" />
    <glyph glyph-name="uni0145" unicode="&#x145;" horiz-adv-x="635" 
d="M532 0h-101q-2 0 -6 1.5t-9 13.5l-232 575q-1 3 -4 8.5t-9 5.5q-2 0 -4.5 -1t-2.5 -12v-581q0 -10 -10 -10h-51q-10 0 -10 10v660q0 10 10 10h106q10 0 14 -12l228 -568q6 -14 13 -14q6 0 6 8v576q0 10 10 10h52q10 0 10 -10v-660q0 -10 -10 -10zM260 -234h-24q-4 0 -6 2
t-1 5l72 159q5 10 13 10h48q4 0 7 -3t2 -7l-88 -151q-2 -4 -7 -9.5t-16 -5.5z" />
    <glyph glyph-name="uni0146" unicode="&#x146;" horiz-adv-x="561" 
d="M274 545q75 0 118 -13.5t65 -48.5t22 -111v-362q0 -10 -10 -10h-51q-10 0 -10 10v355q0 45 -10 71t-37 39t-88 13q-64 0 -104 -9q-10 -3 -10 -11v-458q0 -10 -10 -10h-51q-10 0 -10 10v506q0 8 10 10q37 7 87.5 13t88.5 6zM211 -234h-24q-4 0 -6 2t-1 5l72 159
q5 10 13 10h48q4 0 7 -3t2 -7l-88 -151q-2 -4 -7 -9.5t-16 -5.5z" />
    <glyph glyph-name="Ncaron" unicode="&#x147;" horiz-adv-x="635" 
d="M532 0h-101q-2 0 -6 1.5t-9 13.5l-232 575q-1 3 -4 8.5t-9 5.5q-2 0 -4.5 -1t-2.5 -12v-581q0 -10 -10 -10h-51q-10 0 -10 10v660q0 10 10 10h106q10 0 14 -12l228 -568q6 -14 13 -14q6 0 6 8v576q0 10 10 10h52q10 0 10 -10v-660q0 -10 -10 -10zM176 892h22q5 0 15.5 -1
t19.5 -12l87 -92l9 -2l11 2l89 92q3 3 9.5 8t23.5 5h23q4 0 7 -3t2 -6l-122 -144q-2 -3 -7 -6t-8 -3h-55q-3 0 -8 3t-7 6l-120 144q-1 3 2 6t7 3z" />
    <glyph glyph-name="ncaron" unicode="&#x148;" horiz-adv-x="561" 
d="M274 545q75 0 118 -13.5t65 -48.5t22 -111v-362q0 -10 -10 -10h-51q-10 0 -10 10v355q0 45 -10 71t-37 39t-88 13q-64 0 -104 -9q-10 -3 -10 -11v-458q0 -10 -10 -10h-51q-10 0 -10 10v506q0 8 10 10q37 7 87.5 13t88.5 6zM130 798h20q4 0 12.5 -1t18.5 -13l94 -123
q3 -3 9 -3q7 0 11 3l96 123q3 4 8.5 9t17.5 5h24q4 0 7 -2.5t2 -5.5l-123 -176q-7 -10 -15 -10h-55q-8 0 -15 10l-121 176q-1 3 2 5.5t7 2.5z" />
    <glyph glyph-name="Eng" unicode="&#x14a;" horiz-adv-x="635" 
d="M398 -125q32 0 46.5 7.5t21 27t6.5 58.5v25q-1 7 -16 7h-23q-2 0 -6 1.5t-9 13.5l-237 575q-1 3 -4 8.5t-9 5.5q-2 0 -4.5 -1t-2.5 -12l3 -581q0 -10 -10 -10h-51q-10 0 -10 10v660q0 10 10 10h103q10 0 14 -12l233 -568q5 -14 13 -14q6 0 6 8l-2 576q0 10 10 10h52
q10 0 10 -10v-637q0 -79 -8 -122t-34.5 -67t-90.5 -24q-21 0 -43 2.5t-30 7.5q-3 2 -3 10l3 34q1 4 3 5.5t4 0.5q18 -5 55 -5z" />
    <glyph glyph-name="eng" unicode="&#x14b;" horiz-adv-x="561" 
d="M407 -5l1 370q0 45 -10 71t-37 39t-88 13q-29 0 -61 -3t-46 -8q-7 -3 -7 -9v-458q0 -10 -10 -10h-51q-10 0 -10 10v505q0 6 16 11q23 7 70 13t100 6q75 0 118 -13.5t65 -48.5t22 -111v-353q0 -78 -8 -118.5t-33.5 -60.5t-91.5 -20q-17 0 -39.5 3t-31.5 6q-5 2 -5 8l3 37
q0 4 2.5 5.5t4.5 0.5q18 -5 55 -5q34 0 47 8.5t19 29.5t6 82z" />
    <glyph glyph-name="Omacron" unicode="&#x14c;" horiz-adv-x="626" 
d="M144 339q0 -87 12.5 -158.5t34.5 -97.5q13 -15 33.5 -23.5t87.5 -8.5q56 0 81.5 6.5t42.5 25.5q22 26 34 97t12 159t-12 159.5t-34 97.5q-13 15 -34 23.5t-88 8.5q-56 0 -81 -6.5t-42 -25.5q-22 -26 -34.5 -97.5t-12.5 -159.5zM556 340q0 -97 -16 -175t-45 -115
q-21 -27 -57.5 -43.5t-125.5 -16.5q-72 0 -112.5 12.5t-68.5 47.5q-30 38 -46 116t-16 174t16 172.5t46 114.5q29 36 71 49.5t112 13.5t111.5 -13.5t70.5 -49.5q29 -37 44.5 -113.5t15.5 -173.5zM434 763h-244q-10 0 -10 10v36q0 10 10 10h244q10 0 10 -10v-36
q0 -10 -10 -10z" />
    <glyph glyph-name="omacron" unicode="&#x14d;" horiz-adv-x="571" 
d="M139 271q0 -68 11.5 -121t33.5 -75q15 -15 35.5 -21t64.5 -6q35 0 60.5 4.5t43.5 22.5q21 22 32.5 75t11.5 121t-11 118t-33 72q-14 15 -35 21t-66 6q-35 0 -60.5 -4.5t-43.5 -22.5q-21 -22 -32.5 -72.5t-11.5 -117.5zM504 272q0 -35 -5.5 -79.5t-19.5 -86t-34 -64.5
q-25 -28 -63.5 -40t-97.5 -12t-95.5 12t-61.5 40q-27 31 -43.5 94t-16.5 136q0 74 16 132t44 89q25 28 62.5 40t96.5 12q44 0 86.5 -9t73.5 -43q27 -31 42.5 -89t15.5 -132zM407 657h-244q-10 0 -10 10v36q0 10 10 10h244q10 0 10 -10v-36q0 -10 -10 -10z" />
    <glyph glyph-name="Obreve" unicode="&#x14e;" horiz-adv-x="626" 
d="M144 339q0 -87 12.5 -158.5t34.5 -97.5q13 -15 33.5 -23.5t87.5 -8.5q56 0 81.5 6.5t42.5 25.5q22 26 34 97t12 159t-12 159.5t-34 97.5q-13 15 -34 23.5t-88 8.5q-56 0 -81 -6.5t-42 -25.5q-22 -26 -34.5 -97.5t-12.5 -159.5zM556 340q0 -97 -16 -175t-45 -115
q-21 -27 -57.5 -43.5t-125.5 -16.5q-72 0 -112.5 12.5t-68.5 47.5q-30 38 -46 116t-16 174t16 172.5t46 114.5q29 36 71 49.5t112 13.5t111.5 -13.5t70.5 -49.5q29 -37 44.5 -113.5t15.5 -173.5zM313 788q52 0 71.5 16t19.5 62q0 10 10 10h30q10 0 10 -9q0 -73 -32 -101
t-110 -28t-109.5 28t-31.5 101q0 9 10 9h30q11 0 11 -10q0 -46 19 -62t72 -16z" />
    <glyph glyph-name="obreve" unicode="&#x14f;" horiz-adv-x="571" 
d="M139 271q0 -68 11.5 -121t33.5 -75q15 -15 35.5 -21t64.5 -6q35 0 60.5 4.5t43.5 22.5q21 22 32.5 75t11.5 121t-11 118t-33 72q-14 15 -35 21t-66 6q-35 0 -60.5 -4.5t-43.5 -22.5q-21 -22 -32.5 -72.5t-11.5 -117.5zM504 272q0 -35 -5.5 -79.5t-19.5 -86t-34 -64.5
q-25 -28 -63.5 -40t-97.5 -12t-95.5 12t-61.5 40q-27 31 -43.5 94t-16.5 136q0 74 16 132t44 89q25 28 62.5 40t96.5 12q44 0 86.5 -9t73.5 -43q27 -31 42.5 -89t15.5 -132zM287 672q54 0 72.5 18.5t18.5 66.5q0 10 10 10h30q10 0 10 -9q0 -75 -31.5 -105.5t-110.5 -30.5
q-80 0 -110.5 30.5t-30.5 105.5q0 9 10 9h30q11 0 11 -10q0 -37 9.5 -55t31 -24t50.5 -6z" />
    <glyph glyph-name="Ohungarumlaut" unicode="&#x150;" horiz-adv-x="626" 
d="M144 339q0 -87 12.5 -158.5t34.5 -97.5q13 -15 33.5 -23.5t87.5 -8.5q56 0 81.5 6.5t42.5 25.5q22 26 34 97t12 159t-12 159.5t-34 97.5q-13 15 -34 23.5t-88 8.5q-56 0 -81 -6.5t-42 -25.5q-22 -26 -34.5 -97.5t-12.5 -159.5zM556 340q0 -97 -16 -175t-45 -115
q-21 -27 -57.5 -43.5t-125.5 -16.5q-72 0 -112.5 12.5t-68.5 47.5q-30 38 -46 116t-16 174t16 172.5t46 114.5q29 36 71 49.5t112 13.5t111.5 -13.5t70.5 -49.5q29 -37 44.5 -113.5t15.5 -173.5zM220 742h-26q-4 0 -7 2.5t0 5.5l115 147q6 7 21 7h53q4 0 5.5 -4t-1.5 -9
l-130 -136q-3 -3 -9.5 -8t-20.5 -5zM403 742h-26q-4 0 -7 2.5t0 5.5l115 147q7 7 22 7h53q4 0 5 -4t-2 -9l-130 -136q-3 -3 -9.5 -8t-20.5 -5z" />
    <glyph glyph-name="ohungarumlaut" unicode="&#x151;" horiz-adv-x="571" 
d="M139 271q0 -68 11.5 -121t33.5 -75q15 -15 35.5 -21t64.5 -6q35 0 60.5 4.5t43.5 22.5q21 22 32.5 75t11.5 121t-11 118t-33 72q-14 15 -35 21t-66 6q-35 0 -60.5 -4.5t-43.5 -22.5q-21 -22 -32.5 -72.5t-11.5 -117.5zM504 272q0 -35 -5.5 -79.5t-19.5 -86t-34 -64.5
q-25 -28 -63.5 -40t-97.5 -12t-95.5 12t-61.5 40q-27 31 -43.5 94t-16.5 136q0 74 16 132t44 89q25 28 62.5 40t96.5 12q44 0 86.5 -9t73.5 -43q27 -31 42.5 -89t15.5 -132zM205 610h-20q-10 0 -8 8l94 184q7 10 15 10h49q10 0 10 -10l-114 -176q-3 -4 -8 -10t-18 -6z
M373 610h-20q-4 0 -7 2.5t-2 5.5l94 184q7 10 15 10h49q10 0 10 -10l-113 -176q-3 -4 -8 -10t-18 -6z" />
    <glyph glyph-name="OE" unicode="&#x152;" horiz-adv-x="814" 
d="M759 0h-420q-40 0 -75.5 4.5t-67.5 20.5q-127 66 -127 305q0 227 95 305q25 20 64 32.5t111 12.5h402q10 0 10 -10v-42q0 -10 -10 -10h-225q-6 0 -6 -6v-225q0 -6 6 -6h212q10 0 10 -10v-38q0 -10 -10 -10h-212q-6 0 -6 -6v-249q0 -6 6 -6h243q10 0 10 -10v-42
q0 -10 -10 -10zM144 335q0 -206 87 -255q10 -6 31 -12t78 -6h96q6 0 6 7v541q0 8 -6 8h-97q-41 0 -70.5 -5.5t-53.5 -23.5q-71 -57 -71 -254z" />
    <glyph glyph-name="oe" unicode="&#x153;" horiz-adv-x="889" 
d="M491 242q0 -106 42.5 -150.5t141.5 -44.5q30 0 66 7t59 17q13 5 14 -5l4 -37q0 -8 -7 -12q-29 -12 -70 -19.5t-82 -7.5q-44 0 -84.5 10.5t-67 31.5t-40.5 44q-3 5 -7 6q-5 0 -8 -5q-11 -24 -31.5 -45.5t-55 -31.5t-81.5 -10q-57 0 -98 15t-66.5 46.5t-38 84t-12.5 126.5
q0 119 24.5 177.5t70.5 82t121 23.5q38 0 70.5 -6t56 -24.5t45.5 -51.5l6 -5l6 5q28 42 66 62t98 20q74 0 116.5 -25t60.5 -73t18 -131v-22q0 -21 -4.5 -32.5t-21.5 -11.5h-305q-6 0 -6 -8zM141 271q0 -86 9.5 -132t37.5 -69.5t97 -23.5q46 0 77.5 12.5t48 53t16.5 159.5
q0 81 -9 126t-37 68.5t-95 23.5q-49 0 -81 -12.5t-48 -51.5t-16 -154zM497 303h253q7 0 9.5 6t2.5 30q0 89 -32.5 120.5t-97.5 31.5q-71 0 -106 -43.5t-35 -137.5q0 -7 6 -7z" />
    <glyph glyph-name="Racute" unicode="&#x154;" horiz-adv-x="551" 
d="M443 9l-154 265q-3 4 -10 6h-107q-6 0 -6 -6v-264q0 -10 -10 -10h-53q-10 0 -10 10v660q0 10 10 10h169q106 0 155 -46.5t49 -142.5q0 -71 -28 -117t-87 -72q-2 -1 -3.5 -4t-0.5 -5l172 -282q3 -4 1 -7.5t-6 -3.5h-69q-6 0 -12 9zM254 336q74 0 110.5 39t36.5 109
q0 78 -32.5 108.5t-115.5 30.5h-81q-6 0 -6 -6v-275q0 -6 6 -6h82zM267 742h-27q-4 0 -6 3.5t1 6.5l131 142q10 10 19 10h58q11 0 11.5 -6.5t-3.5 -9.5l-152 -135q-3 -3 -9.5 -7t-22.5 -4z" />
    <glyph glyph-name="racute" unicode="&#x155;" horiz-adv-x="339" 
d="M88 516q0 8 10 10q85 19 147 19q53 0 80 -5q6 -1 6 -8l-5 -46q-2 -6 -7 -5q-38 7 -75 7q-17 0 -39.5 -2.5t-36.5 -7.5q-9 -3 -9 -11v-457q0 -5 -3 -8t-8 -2h-50q-10 0 -10 10v506zM200 610h-20q-4 0 -7 2.5t-2 5.5l94 184q7 10 15 10h49q10 0 10 -10l-113 -176
q-3 -4 -8 -10t-18 -6z" />
    <glyph glyph-name="uni0156" unicode="&#x156;" horiz-adv-x="551" 
d="M443 9l-154 265q-3 4 -10 6h-107q-6 0 -6 -6v-264q0 -10 -10 -10h-53q-10 0 -10 10v660q0 10 10 10h169q106 0 155 -46.5t49 -142.5q0 -71 -28 -117t-87 -72q-2 -1 -3.5 -4t-0.5 -5l172 -282q3 -4 1 -7.5t-6 -3.5h-69q-6 0 -12 9zM254 336q74 0 110.5 39t36.5 109
q0 78 -32.5 108.5t-115.5 30.5h-81q-6 0 -6 -6v-275q0 -6 6 -6h82zM221 -234h-24q-4 0 -6 2t-1 5l72 159q5 10 13 10h48q4 0 7 -3t2 -7l-88 -151q-2 -4 -7 -9.5t-16 -5.5z" />
    <glyph glyph-name="uni0157" unicode="&#x157;" horiz-adv-x="339" 
d="M88 516q0 8 10 10q85 19 147 19q53 0 80 -5q6 -1 6 -8l-5 -46q-2 -6 -7 -5q-38 7 -75 7q-17 0 -39.5 -2.5t-36.5 -7.5q-9 -3 -9 -11v-457q0 -5 -3 -8t-8 -2h-50q-10 0 -10 10v506zM58 -234h-24q-4 0 -6 2t-1 5l72 159q5 10 13 10h48q4 0 7 -3t2 -7l-88 -151
q-2 -4 -7 -9.5t-16 -5.5z" />
    <glyph glyph-name="Rcaron" unicode="&#x158;" horiz-adv-x="551" 
d="M443 9l-154 265q-3 4 -10 6h-107q-6 0 -6 -6v-264q0 -10 -10 -10h-53q-10 0 -10 10v660q0 10 10 10h169q106 0 155 -46.5t49 -142.5q0 -71 -28 -117t-87 -72q-2 -1 -3.5 -4t-0.5 -5l172 -282q3 -4 1 -7.5t-6 -3.5h-69q-6 0 -12 9zM254 336q74 0 110.5 39t36.5 109
q0 78 -32.5 108.5t-115.5 30.5h-81q-6 0 -6 -6v-275q0 -6 6 -6h82zM117 892h22q5 0 15.5 -1t19.5 -12l87 -92l9 -2l11 2l89 92q3 3 9.5 8t23.5 5h23q4 0 7 -3t2 -6l-122 -144q-2 -3 -7 -6t-8 -3h-55q-3 0 -8 3t-7 6l-120 144q-1 3 2 6t7 3z" />
    <glyph glyph-name="rcaron" unicode="&#x159;" horiz-adv-x="339" 
d="M88 516q0 8 10 10q85 19 147 19q53 0 80 -5q6 -1 6 -8l-5 -46q-2 -6 -7 -5q-38 7 -75 7q-17 0 -39.5 -2.5t-36.5 -7.5q-9 -3 -9 -11v-457q0 -5 -3 -8t-8 -2h-50q-10 0 -10 10v506zM59 798h20q4 0 12.5 -1t18.5 -13l94 -123q3 -3 9 -3q7 0 11 3l96 123q3 4 8.5 9t17.5 5
h24q4 0 7 -2.5t2 -5.5l-123 -176q-7 -10 -15 -10h-55q-8 0 -15 10l-121 176q-1 3 2 5.5t7 2.5z" />
    <glyph glyph-name="Sacute" unicode="&#x15a;" horiz-adv-x="461" 
d="M256 623q-64 0 -91.5 -22.5t-27.5 -74.5q0 -38 15 -61q20 -30 121 -103q83 -58 115 -107q22 -35 22 -90q0 -172 -187 -172q-39 0 -86.5 5.5t-81.5 13.5q-5 1 -5 9l4 47q0 2 2 4t6 1q83 -17 157 -17q56 0 87.5 23t31.5 81q0 43 -14 65q-20 29 -117 99q-95 66 -123 112
q-21 35 -21 87q0 79 43 120t151 41q34 0 73.5 -5t61.5 -12q5 -1 5 -9l-4 -45q0 -2 -2.5 -4t-5.5 -1q-20 7 -59.5 11t-69.5 4zM237 742h-27q-4 0 -6 3.5t1 6.5l131 142q10 10 19 10h58q11 0 11.5 -6.5t-3.5 -9.5l-152 -135q-3 -3 -9.5 -7t-22.5 -4z" />
    <glyph glyph-name="sacute" unicode="&#x15b;" horiz-adv-x="396" 
d="M175 -10q-69 0 -121 10q-5 2 -5 7l4 47q0 2 2.5 3.5t4.5 0.5q55 -11 105 -11q64 0 88 15.5t24 63.5q0 35 -19.5 58.5t-84.5 70.5q-53 39 -77 62t-32 47t-8 49q0 68 40 100t125 32q66 0 109 -8q5 -2 5 -7l-4 -47q0 -2 -2.5 -3.5t-4.5 -0.5q-47 9 -93 9q-41 0 -65 -7
t-33 -23.5t-9 -38.5q0 -18 6.5 -36t26.5 -36t67 -50q84 -58 102.5 -93.5t18.5 -75.5q0 -75 -39.5 -106.5t-130.5 -31.5zM197 610h-20q-4 0 -7 2.5t-2 5.5l94 184q7 10 15 10h49q10 0 10 -10l-113 -176q-3 -4 -8 -10t-18 -6z" />
    <glyph glyph-name="Scircumflex" unicode="&#x15c;" horiz-adv-x="461" 
d="M256 623q-64 0 -91.5 -22.5t-27.5 -74.5q0 -38 15 -61q20 -30 121 -103q83 -58 115 -107q22 -35 22 -90q0 -172 -187 -172q-39 0 -86.5 5.5t-81.5 13.5q-5 1 -5 9l4 47q0 2 2 4t6 1q83 -17 157 -17q56 0 87.5 23t31.5 81q0 43 -14 65q-20 29 -117 99q-95 66 -123 112
q-21 35 -21 87q0 79 43 120t151 41q34 0 73.5 -5t61.5 -12q5 -1 5 -9l-4 -45q0 -2 -2.5 -4t-5.5 -1q-20 7 -59.5 11t-69.5 4zM409 742h-22q-6 0 -16 0.5t-20 11.5l-87 92q-3 3 -9 3q-7 0 -10 -3l-89 -92q-3 -3 -9.5 -7.5t-23.5 -4.5h-24q-4 0 -7 2.5t-2 6.5l122 144
q7 9 15 9h55q8 0 15 -9l121 -144q1 -4 -2 -6.5t-7 -2.5z" />
    <glyph glyph-name="scircumflex" unicode="&#x15d;" horiz-adv-x="396" 
d="M175 -10q-69 0 -121 10q-5 2 -5 7l4 47q0 2 2.5 3.5t4.5 0.5q55 -11 105 -11q64 0 88 15.5t24 63.5q0 35 -19.5 58.5t-84.5 70.5q-53 39 -77 62t-32 47t-8 49q0 68 40 100t125 32q66 0 109 -8q5 -2 5 -7l-4 -47q0 -2 -2.5 -3.5t-4.5 -0.5q-47 9 -93 9q-41 0 -65 -7
t-33 -23.5t-9 -38.5q0 -18 6.5 -36t26.5 -36t67 -50q84 -58 102.5 -93.5t18.5 -75.5q0 -75 -39.5 -106.5t-130.5 -31.5zM365 612h-20q-5 0 -13.5 1t-17.5 13l-94 123q-3 3 -9 3t-11 -3l-96 -123q-3 -4 -8.5 -9t-17.5 -5h-24q-10 0 -9 8l123 176q7 10 15 10h55q8 0 15 -10
l121 -176q3 -8 -9 -8z" />
    <glyph glyph-name="Scedilla" unicode="&#x15e;" horiz-adv-x="461" 
d="M256 623q-64 0 -91.5 -22.5t-27.5 -74.5q0 -38 15 -61q20 -30 121 -103q83 -58 115 -107q22 -35 22 -90q0 -160 -158 -171q-9 -2 -12 -11q-2 -5 -6 -24t-4 -22q-1 -9 12 -9q45 0 67 -15t22 -56q0 -53 -32 -75t-110 -22q-23 0 -24 9l-4 24q0 8 9 8h22q43 0 64.5 11
t21.5 39q0 24 -14 33t-54 9h-22q-7 0 -7 6l17 88q0 6 -4 7q-78 3 -139 18q-5 1 -5 9l4 47q0 2 2 4t6 1q83 -17 157 -17q56 0 87.5 23t31.5 81q0 43 -14 65q-20 29 -117 99q-95 66 -123 112q-21 35 -21 87q0 79 43 120t151 41q34 0 73.5 -5t61.5 -12q5 -1 5 -9l-4 -45
q0 -2 -2.5 -4t-5.5 -1q-20 7 -59.5 11t-69.5 4z" />
    <glyph glyph-name="scedilla" unicode="&#x15f;" horiz-adv-x="396" 
d="M345 128q0 -65 -30 -97t-96 -39q-9 -1 -12 -9q-2 -5 -6 -24t-4 -22q-1 -9 12 -9q45 0 67 -15t22 -56q0 -53 -32 -75t-110 -22q-23 0 -24 9l-4 24q0 8 9 8h22q43 0 64.5 11t21.5 39q0 24 -14 33t-54 9h-22q-7 0 -7 6l16 84q0 1 -1 4t-6 3q-57 1 -103 10q-5 2 -5 7l4 47
q0 2 2.5 3.5t4.5 0.5q55 -11 105 -11q64 0 88 15.5t24 63.5q0 35 -19.5 58.5t-84.5 70.5q-53 39 -77 62t-32 47t-8 49q0 68 40 100t125 32q66 0 109 -8q5 -2 5 -7l-4 -47q0 -2 -2.5 -3.5t-4.5 -0.5q-47 9 -93 9q-41 0 -65 -7t-33 -23.5t-9 -38.5q0 -18 6.5 -36t26.5 -36
t67 -50q84 -58 102.5 -93.5t18.5 -75.5z" />
    <glyph glyph-name="Scaron" unicode="&#x160;" horiz-adv-x="461" 
d="M256 623q-64 0 -91.5 -22.5t-27.5 -74.5q0 -38 15 -61q20 -30 121 -103q83 -58 115 -107q22 -35 22 -90q0 -172 -187 -172q-39 0 -86.5 5.5t-81.5 13.5q-5 1 -5 9l4 47q0 2 2 4t6 1q83 -17 157 -17q56 0 87.5 23t31.5 81q0 43 -14 65q-20 29 -117 99q-95 66 -123 112
q-21 35 -21 87q0 79 43 120t151 41q34 0 73.5 -5t61.5 -12q5 -1 5 -9l-4 -45q0 -2 -2.5 -4t-5.5 -1q-20 7 -59.5 11t-69.5 4zM98 892h22q5 0 15.5 -1t19.5 -12l87 -92l9 -2l11 2l89 92q3 3 9.5 8t23.5 5h23q4 0 7 -3t2 -6l-122 -144q-2 -3 -7 -6t-8 -3h-55q-3 0 -8 3t-7 6
l-120 144q-1 3 2 6t7 3z" />
    <glyph glyph-name="scaron" unicode="&#x161;" horiz-adv-x="396" 
d="M175 -10q-69 0 -121 10q-5 2 -5 7l4 47q0 2 2.5 3.5t4.5 0.5q55 -11 105 -11q64 0 88 15.5t24 63.5q0 35 -19.5 58.5t-84.5 70.5q-53 39 -77 62t-32 47t-8 49q0 68 40 100t125 32q66 0 109 -8q5 -2 5 -7l-4 -47q0 -2 -2.5 -3.5t-4.5 -0.5q-47 9 -93 9q-41 0 -65 -7
t-33 -23.5t-9 -38.5q0 -18 6.5 -36t26.5 -36t67 -50q84 -58 102.5 -93.5t18.5 -75.5q0 -75 -39.5 -106.5t-130.5 -31.5zM53 798h20q4 0 12.5 -1t18.5 -13l94 -123q3 -3 9 -3q7 0 11 3l96 123q3 4 8.5 9t17.5 5h24q4 0 7 -2.5t2 -5.5l-123 -176q-7 -10 -15 -10h-55
q-8 0 -15 10l-121 176q-1 3 2 5.5t7 2.5z" />
    <glyph glyph-name="uni0162" unicode="&#x162;" horiz-adv-x="422" 
d="M175 10v602q0 6 -6 6h-142q-10 0 -10 10v42q0 10 10 10h369q10 0 10 -10v-42q0 -10 -10 -10h-142q-6 0 -6 -6v-602q0 -10 -10 -10h-53q-10 0 -10 10zM144 -234h-24q-4 0 -6 2t-1 5l72 159q5 10 13 10h48q4 0 7 -3t2 -7l-88 -151q-2 -4 -7 -9.5t-16 -5.5z" />
    <glyph glyph-name="uni0163" unicode="&#x163;" horiz-adv-x="315" 
d="M276 -2q-30 -7 -64 -7q-53 0 -75 26.5t-22 73.5v382q0 6 -6 6h-82q-10 0 -10 10v36q0 10 10 10h82q6 0 6 6v125q0 10 10 10h51q10 0 10 -10v-125q0 -6 6 -6h93q10 0 10 -10v-36q0 -10 -10 -10h-93q-6 0 -6 -6v-369q0 -26 7 -42t43 -16h40q10 0 10 -9l-1 -28q0 -9 -9 -11z
M135 -234h-24q-4 0 -6 2t-1 5l72 159q5 10 13 10h48q4 0 7 -3t2 -7l-88 -151q-2 -4 -7 -9.5t-16 -5.5z" />
    <glyph glyph-name="uni021A" unicode="&#x21a;" horiz-adv-x="422" 
d="M175 10v602q0 6 -6 6h-142q-10 0 -10 10v42q0 10 10 10h369q10 0 10 -10v-42q0 -10 -10 -10h-142q-6 0 -6 -6v-602q0 -10 -10 -10h-53q-10 0 -10 10zM144 -234h-24q-4 0 -6 2t-1 5l72 159q5 10 13 10h48q4 0 7 -3t2 -7l-88 -151q-2 -4 -7 -9.5t-16 -5.5z" />
    <glyph glyph-name="uni021B" unicode="&#x21b;" horiz-adv-x="315" 
d="M276 -2q-30 -7 -64 -7q-53 0 -75 26.5t-22 73.5v382q0 6 -6 6h-82q-10 0 -10 10v36q0 10 10 10h82q6 0 6 6v125q0 10 10 10h51q10 0 10 -10v-125q0 -6 6 -6h93q10 0 10 -10v-36q0 -10 -10 -10h-93q-6 0 -6 -6v-369q0 -26 7 -42t43 -16h40q10 0 10 -9l-1 -28q0 -9 -9 -11z
M135 -234h-24q-4 0 -6 2t-1 5l72 159q5 10 13 10h48q4 0 7 -3t2 -7l-88 -151q-2 -4 -7 -9.5t-16 -5.5z" />
    <glyph glyph-name="Tcaron" unicode="&#x164;" horiz-adv-x="422" 
d="M175 10v602q0 6 -6 6h-142q-10 0 -10 10v42q0 10 10 10h369q10 0 10 -10v-42q0 -10 -10 -10h-142q-6 0 -6 -6v-602q0 -10 -10 -10h-53q-10 0 -10 10zM60 892h22q5 0 15.5 -1t19.5 -12l87 -92l9 -2l11 2l89 92q3 3 9.5 8t23.5 5h23q4 0 7 -3t2 -6l-122 -144q-2 -3 -7 -6
t-8 -3h-55q-3 0 -8 3t-7 6l-120 144q-1 3 2 6t7 3z" />
    <glyph glyph-name="tcaron" unicode="&#x165;" horiz-adv-x="315" 
d="M276 -2q-30 -7 -64 -7q-53 0 -75 26.5t-22 73.5v382q0 6 -6 6h-82q-10 0 -10 10v36q0 10 10 10h82q6 0 6 6v125q0 10 10 10h51q10 0 10 -10v-125q0 -6 6 -6h93q10 0 10 -10v-36q0 -10 -10 -10h-93q-6 0 -6 -6v-369q0 -26 7 -42t43 -16h40q10 0 10 -9l-1 -28q0 -9 -9 -11z
M296 618h-20q-4 0 -6.5 2.5t-1.5 5.5l48 191q3 10 14 10h44q5 0 8 -3.5t2 -7.5l-63 -181q-2 -6 -6 -11.5t-19 -5.5z" />
    <glyph glyph-name="Tbar" unicode="&#x166;" horiz-adv-x="422" 
d="M175 10v337q-2 5 -6 5h-82q-10 0 -10 10v31q0 10 10 10h82q5 0 6 4v205q0 6 -6 6h-142q-10 0 -10 10v42q0 10 10 10h369q10 0 10 -10v-42q0 -10 -10 -10h-142q-6 0 -6 -6v-203q0 -6 6 -6h81q10 0 10 -10v-31q0 -10 -10 -10h-81q-2 0 -4 -1.5t-2 -3.5v-337q0 -10 -10 -10
h-53q-10 0 -10 10z" />
    <glyph glyph-name="tbar" unicode="&#x167;" horiz-adv-x="315" 
d="M276 -2q-30 -7 -64 -7q-53 0 -75 26.5t-22 73.5v170q-2 5 -6 5h-56q-10 0 -10 10v31q0 10 10 10h56q6 0 6 6v150q0 6 -6 6h-82q-10 0 -10 10v36q0 10 10 10h82q6 0 6 6v125q0 10 10 10h51q10 0 10 -10v-125q0 -6 6 -6h93q10 0 10 -10v-36q0 -10 -10 -10h-93q-6 0 -6 -6
v-150q0 -6 5 -6h66q10 0 10 -10v-31q0 -10 -10 -10h-64q-7 0 -7 -6v-156q0 -26 7 -42t43 -16h40q10 0 10 -9l-1 -28q0 -9 -9 -11z" />
    <glyph glyph-name="Utilde" unicode="&#x168;" horiz-adv-x="609" 
d="M523 670v-518q0 -76 -58 -119t-164 -43q-109 0 -162 42.5t-53 119.5v518q0 10 10 10h53q10 0 10 -10v-505q0 -56 32.5 -84t109.5 -28q79 0 114 28t35 85v504q0 10 10 10h53q10 0 10 -10zM316 820q38 -27 57 -27q33 0 39 53q0 5 6 5h35q6 0 6 -8q0 -26 -12.5 -52
t-32.5 -37.5t-39 -11.5q-8 0 -26.5 3.5t-56.5 29.5q-36 25 -56 25q-34 0 -40 -50q0 -8 -6 -8h-35q-6 0 -6 9q0 39 23.5 69.5t61.5 30.5q11 0 28.5 -3.5t53.5 -27.5z" />
    <glyph glyph-name="utilde" unicode="&#x169;" horiz-adv-x="561" 
d="M290 -10q-89 0 -131.5 18.5t-59.5 55.5t-17 101v360q0 10 10 10h51q10 0 10 -10v-352q0 -45 11.5 -74t43 -40t82.5 -11q62 0 102 9q10 3 10 11v457q0 10 10 10h51q10 0 10 -10v-506q0 -8 -10 -10q-38 -8 -88.5 -13.5t-84.5 -5.5zM305 710q38 -27 57 -27q33 0 39 53
q0 5 6 5h35q6 0 6 -8q0 -26 -12.5 -52t-32.5 -37.5t-39 -11.5q-8 0 -26.5 3.5t-56.5 29.5q-36 25 -56 25q-34 0 -40 -50q0 -8 -6 -8h-35q-6 0 -6 9q0 39 23.5 69.5t61.5 30.5q11 0 28.5 -3.5t53.5 -27.5z" />
    <glyph glyph-name="Umacron" unicode="&#x16a;" horiz-adv-x="609" 
d="M523 670v-518q0 -76 -58 -119t-164 -43q-109 0 -162 42.5t-53 119.5v518q0 10 10 10h53q10 0 10 -10v-505q0 -56 32.5 -84t109.5 -28q79 0 114 28t35 85v504q0 10 10 10h53q10 0 10 -10zM425 763h-244q-10 0 -10 10v36q0 10 10 10h244q10 0 10 -10v-36q0 -10 -10 -10z
" />
    <glyph glyph-name="umacron" unicode="&#x16b;" horiz-adv-x="561" 
d="M290 -10q-89 0 -131.5 18.5t-59.5 55.5t-17 101v360q0 10 10 10h51q10 0 10 -10v-352q0 -45 11.5 -74t43 -40t82.5 -11q62 0 102 9q10 3 10 11v457q0 10 10 10h51q10 0 10 -10v-506q0 -8 -10 -10q-38 -8 -88.5 -13.5t-84.5 -5.5zM407 657h-244q-10 0 -10 10v36
q0 10 10 10h244q10 0 10 -10v-36q0 -10 -10 -10z" />
    <glyph glyph-name="Ubreve" unicode="&#x16c;" horiz-adv-x="609" 
d="M523 670v-518q0 -76 -58 -119t-164 -43q-109 0 -162 42.5t-53 119.5v518q0 10 10 10h53q10 0 10 -10v-505q0 -56 32.5 -84t109.5 -28q79 0 114 28t35 85v504q0 10 10 10h53q10 0 10 -10zM305 788q52 0 71.5 16t19.5 62q0 10 10 10h30q10 0 10 -9q0 -73 -32 -101t-110 -28
t-109.5 28t-31.5 101q0 9 10 9h30q11 0 11 -10q0 -46 19 -62t72 -16z" />
    <glyph glyph-name="ubreve" unicode="&#x16d;" horiz-adv-x="561" 
d="M290 -10q-89 0 -131.5 18.5t-59.5 55.5t-17 101v360q0 10 10 10h51q10 0 10 -10v-352q0 -45 11.5 -74t43 -40t82.5 -11q62 0 102 9q10 3 10 11v457q0 10 10 10h51q10 0 10 -10v-506q0 -8 -10 -10q-38 -8 -88.5 -13.5t-84.5 -5.5zM285 672q54 0 72.5 18.5t18.5 66.5
q0 10 10 10h30q10 0 10 -9q0 -75 -31.5 -105.5t-110.5 -30.5q-80 0 -110.5 30.5t-30.5 105.5q0 9 10 9h30q11 0 11 -10q0 -37 9.5 -55t31 -24t50.5 -6z" />
    <glyph glyph-name="Uring" unicode="&#x16e;" horiz-adv-x="609" 
d="M523 670v-518q0 -76 -58 -119t-164 -43q-109 0 -162 42.5t-53 119.5v518q0 10 10 10h53q10 0 10 -10v-505q0 -56 32.5 -84t109.5 -28q79 0 114 28t35 85v504q0 10 10 10h53q10 0 10 -10zM188 832q0 62 30 87.5t87 25.5q116 0 116 -102q0 -33 -11 -60.5t-39 -41t-66 -13.5
q-61 0 -89 26.5t-28 77.5zM374 839q0 30 -12.5 48.5t-56.5 18.5q-40 0 -56 -13.5t-16 -53.5q0 -32 13 -52t59 -20q38 0 53.5 14.5t15.5 57.5z" />
    <glyph glyph-name="uring" unicode="&#x16f;" horiz-adv-x="561" 
d="M290 -10q-89 0 -131.5 18.5t-59.5 55.5t-17 101v360q0 10 10 10h51q10 0 10 -10v-352q0 -45 11.5 -74t43 -40t82.5 -11q62 0 102 9q10 3 10 11v457q0 10 10 10h51q10 0 10 -10v-506q0 -8 -10 -10q-38 -8 -88.5 -13.5t-84.5 -5.5zM171 712q0 62 30 87.5t87 25.5
q116 0 116 -102q0 -33 -11 -60.5t-39 -41t-66 -13.5q-61 0 -89 26.5t-28 77.5zM357 719q0 30 -12.5 48.5t-56.5 18.5q-40 0 -56 -13.5t-16 -53.5q0 -32 13 -52t59 -20q38 0 53.5 14.5t15.5 57.5z" />
    <glyph glyph-name="Uhungarumlaut" unicode="&#x170;" horiz-adv-x="609" 
d="M523 670v-518q0 -76 -58 -119t-164 -43q-109 0 -162 42.5t-53 119.5v518q0 10 10 10h53q10 0 10 -10v-505q0 -56 32.5 -84t109.5 -28q79 0 114 28t35 85v504q0 10 10 10h53q10 0 10 -10zM189 742h-26q-4 0 -7 2.5t0 5.5l115 147q6 7 21 7h53q4 0 5.5 -4t-1.5 -9
l-130 -136q-3 -3 -9.5 -8t-20.5 -5zM372 742h-26q-4 0 -7 2.5t0 5.5l115 147q7 7 22 7h53q4 0 5 -4t-2 -9l-130 -136q-3 -3 -9.5 -8t-20.5 -5z" />
    <glyph glyph-name="uhungarumlaut" unicode="&#x171;" horiz-adv-x="561" 
d="M290 -10q-89 0 -131.5 18.5t-59.5 55.5t-17 101v360q0 10 10 10h51q10 0 10 -10v-352q0 -45 11.5 -74t43 -40t82.5 -11q62 0 102 9q10 3 10 11v457q0 10 10 10h51q10 0 10 -10v-506q0 -8 -10 -10q-38 -8 -88.5 -13.5t-84.5 -5.5zM190 610h-20q-10 0 -8 8l94 184
q7 10 15 10h49q10 0 10 -10l-114 -176q-3 -4 -8 -10t-18 -6zM358 610h-20q-4 0 -7 2.5t-2 5.5l94 184q7 10 15 10h49q10 0 10 -10l-113 -176q-3 -4 -8 -10t-18 -6z" />
    <glyph glyph-name="Uogonek" unicode="&#x172;" horiz-adv-x="609" 
d="M317 -129q0 -25 12 -36t36 -11q25 0 45 4l12 2q5 0 5 -10v-16q0 -9 -7 -12q-29 -10 -67 -10q-46 0 -69.5 19t-23.5 65q0 23 12 53t54 72l-25 -1q-109 0 -162 42.5t-53 119.5v518q0 10 10 10h53q10 0 10 -10v-505q0 -56 32.5 -84t109.5 -28q79 0 114 28t35 85v504
q0 10 10 10h53q10 0 10 -10v-518q0 -58 -36 -98t-101 -55q-37 -40 -53 -68t-16 -60z" />
    <glyph glyph-name="uogonek" unicode="&#x173;" horiz-adv-x="561" 
d="M359 -128q0 -25 12 -36t36 -11q25 0 45 4l12 2q5 0 5 -10v-16q0 -9 -7 -12q-29 -10 -67 -10q-46 0 -69.5 19t-23.5 65q0 32 17 62.5t52 65.5q-48 -5 -81 -5q-89 0 -131.5 18.5t-59.5 55.5t-17 101v360q0 10 10 10h51q10 0 10 -10v-352q0 -45 11.5 -74t43 -40t82.5 -11
q62 0 102 9q10 3 10 11v457q0 10 10 10h51q10 0 10 -10v-506q0 -8 -10 -10l-32 -6q-49 -52 -60.5 -79t-11.5 -52z" />
    <glyph glyph-name="Wcircumflex" unicode="&#x174;" horiz-adv-x="832" 
d="M475 650q17 -107 55.5 -297.5t59.5 -273.5q3 -13 13 -13q3 0 7 1t7 13q19 83 57 293t50 297q1 10 14 10h53q7 0 7 -10q-10 -71 -56.5 -305.5t-73.5 -352.5q-3 -12 -14 -12h-103q-9 0 -12 10q-14 56 -54 253t-60 312q-1 10 -9 10q-10 0 -11 -10q-21 -114 -63 -309.5
t-58 -254.5q-1 -3 -3 -7t-10 -4h-104q-10 0 -12 10q-26 123 -71.5 371.5t-49.5 289.5q0 9 9 9h56q7 0 8 -10q11 -86 48 -296t56 -295q3 -13 13 -13q2 0 6 1t7 13q19 77 60.5 269.5t61.5 300.5q2 10 10 10h96q10 0 10 -10zM573 742h-22q-6 0 -16 0.5t-20 11.5l-87 92
q-3 3 -9 3q-7 0 -10 -3l-89 -92q-3 -3 -9.5 -7.5t-23.5 -4.5h-24q-4 0 -7 2.5t-2 6.5l122 144q7 9 15 9h55q8 0 15 -9l121 -144q1 -4 -2 -6.5t-7 -2.5z" />
    <glyph glyph-name="wcircumflex" unicode="&#x175;" horiz-adv-x="821" 
d="M650 8q-3 -8 -10 -8h-96q-6 0 -9 8q-2 6 -7.5 27.5t-40 153t-67.5 276.5q-1 6 -9 6q-9 0 -10 -6q-2 -9 -9.5 -38.5t-43.5 -165.5t-71 -253q-2 -8 -12 -8h-93q-6 0 -8 8q-22 69 -72.5 263.5t-62.5 254.5q0 9 7 9h61q5 0 7 -9t8 -37t33 -148t67 -276q2 -6 11 -6t10 6
q2 7 8.5 29.5t39.5 147t70 284.5q3 9 10 9h98q7 0 9 -9t8.5 -37t36.5 -150.5t70 -273.5q1 -6 10 -6t11 6q24 83 60.5 228.5t54.5 232.5q3 9 10 9h56q1 0 3.5 -2t2.5 -8q-9 -47 -62.5 -242t-78.5 -275zM566 612h-20q-5 0 -13.5 1t-17.5 13l-94 123q-3 3 -9 3t-11 -3l-96 -123
q-3 -4 -8.5 -9t-17.5 -5h-24q-10 0 -9 8l123 176q7 10 15 10h55q8 0 15 -10l121 -176q3 -8 -9 -8z" />
    <glyph glyph-name="Ycircumflex" unicode="&#x176;" horiz-adv-x="489" 
d="M410 669q6 11 15 11h54q8 0 5 -10q-3 -6 -12.5 -26t-56 -113.5t-102.5 -191.5q-25 -43 -30.5 -54.5t-5.5 -21.5v-253q0 -10 -10 -10h-53q-10 0 -10 10v254q0 4 -2 13t-30 59q-34 61 -94 179t-74 155q-1 4 1 7t6 3h57q10 0 14 -11q24 -56 73 -160t73 -149q3 -5 6.5 -10.5
t9.5 -5.5q2 0 4.5 1t11.5 15q26 44 74 144t76 165zM399 742h-22q-6 0 -16 0.5t-20 11.5l-87 92q-3 3 -9 3q-7 0 -10 -3l-89 -92q-3 -3 -9.5 -7.5t-23.5 -4.5h-24q-4 0 -7 2.5t-2 6.5l122 144q7 9 15 9h55q8 0 15 -9l121 -144q1 -4 -2 -6.5t-7 -2.5z" />
    <glyph glyph-name="ycircumflex" unicode="&#x177;" horiz-adv-x="469" 
d="M226 5q0 4 -8 4h-19q-16 0 -21 12q-30 81 -87.5 267.5t-68.5 237.5q0 9 9 9h57q7 0 9 -9q20 -90 61.5 -234t68.5 -221q2 -6 11 -6t13 8q59 177 125 453q2 9 13 9h50q8 0 8 -10q-9 -47 -64.5 -232.5t-83.5 -264.5q-27 -78 -50.5 -121t-57 -65t-94.5 -22q-31 0 -46 4
q-6 1 -6 10v32q1 8 8 8l23 -1q34 0 58 6t39.5 22t27 38.5t21.5 50.5q4 9 4 15zM394 612h-20q-5 0 -13.5 1t-17.5 13l-94 123q-3 3 -9 3t-11 -3l-96 -123q-3 -4 -8.5 -9t-17.5 -5h-24q-10 0 -9 8l123 176q7 10 15 10h55q8 0 15 -10l121 -176q3 -8 -9 -8z" />
    <glyph glyph-name="Ydieresis" unicode="&#x178;" horiz-adv-x="489" 
d="M410 669q6 11 15 11h54q8 0 5 -10q-3 -6 -12.5 -26t-56 -113.5t-102.5 -191.5q-25 -43 -30.5 -54.5t-5.5 -21.5v-253q0 -10 -10 -10h-53q-10 0 -10 10v254q0 4 -2 13t-30 59q-34 61 -94 179t-74 155q-1 4 1 7t6 3h57q10 0 14 -11q24 -56 73 -160t73 -149q3 -5 6.5 -10.5
t9.5 -5.5q2 0 4.5 1t11.5 15q26 44 74 144t76 165zM178 765h-56q-10 0 -10 10v59q0 10 10 10h56q10 0 10 -10v-59q0 -10 -10 -10zM370 765h-56q-10 0 -10 10v59q0 10 10 10h56q10 0 10 -10v-59q0 -10 -10 -10z" />
    <glyph glyph-name="Zacute" unicode="&#x179;" horiz-adv-x="451" 
d="M400 0h-362q-10 0 -10 10v58q0 8 14 34l282 484q8 14 8 23t-10 9h-248q-10 0 -10 10v42q0 10 10 10h328q10 0 10 -10v-52q0 -14 -11 -34l-290 -498q-3 -6 -3 -15q0 -8 5 -8h288q10 0 10 -10v-43q0 -10 -11 -10zM222 742h-27q-4 0 -6 3.5t1 6.5l131 142q10 10 19 10h58
q11 0 11.5 -6.5t-3.5 -9.5l-152 -135q-3 -3 -9.5 -7t-22.5 -4z" />
    <glyph glyph-name="zacute" unicode="&#x17a;" horiz-adv-x="446" 
d="M393 0h-336q-10 0 -10 10v50q0 14 11 29l255 361q8 12 8 22q0 7 -9 7h-234q-10 0 -10 10v36q0 10 10 10h307q10 0 10 -10v-44q0 -21 -8 -32l-262 -372q-3 -4 -3 -12q0 -7 5 -7h267q10 0 10 -10v-38q0 -10 -11 -10zM235 610h-20q-4 0 -7 2.5t-2 5.5l94 184q7 10 15 10h49
q10 0 10 -10l-113 -176q-3 -4 -8 -10t-18 -6z" />
    <glyph glyph-name="Zdotaccent" unicode="&#x17b;" horiz-adv-x="451" 
d="M400 0h-362q-10 0 -10 10v58q0 8 14 34l282 484q8 14 8 23t-10 9h-248q-10 0 -10 10v42q0 10 10 10h328q10 0 10 -10v-52q0 -14 -11 -34l-290 -498q-3 -6 -3 -15q0 -8 5 -8h288q10 0 10 -10v-43q0 -10 -11 -10zM264 762h-61q-10 0 -10 10v63q0 10 10 10h61q10 0 10 -10
v-63q0 -10 -10 -10z" />
    <glyph glyph-name="zdotaccent" unicode="&#x17c;" horiz-adv-x="446" 
d="M393 0h-336q-10 0 -10 10v50q0 14 11 29l255 361q8 12 8 22q0 7 -9 7h-234q-10 0 -10 10v36q0 10 10 10h307q10 0 10 -10v-44q0 -21 -8 -32l-262 -372q-3 -4 -3 -12q0 -7 5 -7h267q10 0 10 -10v-38q0 -10 -11 -10zM269 646h-61q-10 0 -10 10v64q0 10 10 10h61
q10 0 10 -10v-64q0 -10 -10 -10z" />
    <glyph glyph-name="Zcaron" unicode="&#x17d;" horiz-adv-x="451" 
d="M400 0h-362q-10 0 -10 10v58q0 8 14 34l282 484q8 14 8 23t-10 9h-248q-10 0 -10 10v42q0 10 10 10h328q10 0 10 -10v-52q0 -14 -11 -34l-290 -498q-3 -6 -3 -15q0 -8 5 -8h288q10 0 10 -10v-43q0 -10 -11 -10zM94 892h22q5 0 15.5 -1t19.5 -12l87 -92l9 -2l11 2l89 92
q3 3 9.5 8t23.5 5h23q4 0 7 -3t2 -6l-122 -144q-2 -3 -7 -6t-8 -3h-55q-3 0 -8 3t-7 6l-120 144q-1 3 2 6t7 3z" />
    <glyph glyph-name="zcaron" unicode="&#x17e;" horiz-adv-x="446" 
d="M393 0h-336q-10 0 -10 10v50q0 14 11 29l255 361q8 12 8 22q0 7 -9 7h-234q-10 0 -10 10v36q0 10 10 10h307q10 0 10 -10v-44q0 -21 -8 -32l-262 -372q-3 -4 -3 -12q0 -7 5 -7h267q10 0 10 -10v-38q0 -10 -11 -10zM81 798h20q4 0 12.5 -1t18.5 -13l94 -123q3 -3 9 -3
q7 0 11 3l96 123q3 4 8.5 9t17.5 5h24q4 0 7 -2.5t2 -5.5l-123 -176q-7 -10 -15 -10h-55q-8 0 -15 10l-121 176q-1 3 2 5.5t7 2.5z" />
    <glyph glyph-name="florin" unicode="&#x192;" 
d="M308 353l-63 -395q-13 -79 -49 -112t-92 -33q-41 0 -59 5q-7 3 -5 13l5 33q3 8 13 6q24 -4 44 -4q35 0 52.5 23t25.5 72l62 392q0 6 -5 6h-115q-4 0 -7 3t-2 7l6 33q2 10 11 10h115q7 0 7 6l27 172q13 83 51 114t97 31q7 0 30.5 -2t37.5 -6q7 -3 5 -13l-5 -33
q-3 -8 -13 -6q-28 7 -51 7q-43 0 -61 -22t-26 -73l-26 -169q0 -6 5 -6h126q4 0 7 -3t2 -7l-6 -33q-2 -10 -11 -10h-126q-7 0 -7 -6z" />
    <glyph glyph-name="uni0218" unicode="&#x218;" horiz-adv-x="461" 
d="M257 623q-64 0 -91.5 -22.5t-27.5 -74.5q0 -38 15 -61q20 -30 121 -103q83 -58 115 -107q22 -35 22 -90q0 -172 -187 -172q-39 0 -86.5 5.5t-81.5 13.5q-5 1 -5 9l4 47q0 2 2 4t6 1q83 -17 157 -17q56 0 87.5 23t31.5 81q0 43 -14 65q-20 29 -117 99q-95 66 -123 112
q-21 35 -21 87q0 79 43 120t151 41q34 0 73.5 -5t61.5 -12q5 -1 5 -9l-4 -45q0 -2 -2.5 -4t-5.5 -1q-20 7 -59.5 11t-69.5 4zM178 -234h-24q-4 0 -6 2t-1 5l72 159q5 10 13 10h48q4 0 7 -3t2 -7l-88 -151q-2 -4 -7 -9.5t-16 -5.5z" />
    <glyph glyph-name="uni0219" unicode="&#x219;" horiz-adv-x="396" 
d="M175 -10q-69 0 -121 10q-5 2 -5 7l4 47q0 2 2.5 3.5t4.5 0.5q55 -11 105 -11q64 0 88 15.5t24 63.5q0 35 -19.5 58.5t-84.5 70.5q-53 39 -77 62t-32 47t-8 49q0 68 40 100t125 32q66 0 109 -8q5 -2 5 -7l-4 -47q0 -2 -2.5 -3.5t-4.5 -0.5q-47 9 -93 9q-41 0 -65 -7
t-33 -23.5t-9 -38.5q0 -18 6.5 -36t26.5 -36t67 -50q84 -58 102.5 -93.5t18.5 -75.5q0 -75 -39.5 -106.5t-130.5 -31.5zM147 -234h-24q-4 0 -6 2t-1 5l72 159q5 10 13 10h48q4 0 7 -3t2 -7l-88 -151q-2 -4 -7 -9.5t-16 -5.5z" />
    <glyph glyph-name="uni0237" unicode="&#x237;" horiz-adv-x="264" 
d="M97 -9v534q0 10 10 10h51q10 0 10 -10v-570q-1 -41 -10.5 -74t-38.5 -49t-84 -16q-76 0 -76 17q0 12 2.5 27.5t8.5 15.5l54 -5q22 0 39.5 5t25.5 29.5t8 85.5z" />
    <glyph glyph-name="circumflex" unicode="&#x2c6;" horiz-adv-x="500" 
d="M404 612h-20q-5 0 -13.5 1t-17.5 13l-94 123q-3 3 -9 3t-11 -3l-96 -123q-3 -4 -8.5 -9t-17.5 -5h-24q-10 0 -9 8l123 176q7 10 15 10h55q8 0 15 -10l121 -176q3 -8 -9 -8z" />
    <glyph glyph-name="caron" unicode="&#x2c7;" horiz-adv-x="500" 
d="M93 798h20q4 0 12.5 -1t18.5 -13l94 -123q3 -3 9 -3q7 0 11 3l96 123q3 4 8.5 9t17.5 5h24q4 0 7 -2.5t2 -5.5l-123 -176q-7 -10 -15 -10h-55q-8 0 -15 10l-121 176q-1 3 2 5.5t7 2.5z" />
    <glyph glyph-name="uni02C9" unicode="&#x2c9;" horiz-adv-x="500" 
d="M372 657h-244q-10 0 -10 10v36q0 10 10 10h244q10 0 10 -10v-36q0 -10 -10 -10z" />
    <glyph glyph-name="breve" unicode="&#x2d8;" horiz-adv-x="500" 
d="M250 672q54 0 72.5 18.5t18.5 66.5q0 10 10 10h30q10 0 10 -9q0 -75 -31.5 -105.5t-110.5 -30.5q-80 0 -110.5 30.5t-30.5 105.5q0 9 10 9h30q11 0 11 -10q0 -37 9.5 -55t31 -24t50.5 -6z" />
    <glyph glyph-name="dotaccent" unicode="&#x2d9;" horiz-adv-x="500" 
d="M281 646h-61q-10 0 -10 10v64q0 10 10 10h61q10 0 10 -10v-64q0 -10 -10 -10z" />
    <glyph glyph-name="ring" unicode="&#x2da;" horiz-adv-x="500" 
d="M133 712q0 62 30 87.5t87 25.5q116 0 116 -102q0 -33 -11 -60.5t-39 -41t-66 -13.5q-61 0 -89 26.5t-28 77.5zM319 719q0 30 -12.5 48.5t-56.5 18.5q-40 0 -56 -13.5t-16 -53.5q0 -32 13 -52t59 -20q38 0 53.5 14.5t15.5 57.5z" />
    <glyph glyph-name="ogonek" unicode="&#x2db;" horiz-adv-x="500" 
d="M229 -128q0 -25 12 -36t36 -11q25 0 45 4l12 2q5 0 5 -10v-16q0 -9 -7 -12q-29 -10 -67 -10q-46 0 -69.5 19t-23.5 65q0 29 18 64.5t85 94.5q12 9 22 9q4 0 10 -4.5t6 -7.5q0 -6 -6 -14q-43 -45 -60.5 -74t-17.5 -63z" />
    <glyph glyph-name="tilde" unicode="&#x2dc;" horiz-adv-x="500" 
d="M262 710q38 -27 57 -27q33 0 39 53q0 5 6 5h35q6 0 6 -8q0 -26 -12.5 -52t-32.5 -37.5t-39 -11.5q-8 0 -26.5 3.5t-56.5 29.5q-36 25 -56 25q-34 0 -40 -50q0 -8 -6 -8h-35q-6 0 -6 9q0 39 23.5 69.5t61.5 30.5q11 0 28.5 -3.5t53.5 -27.5z" />
    <glyph glyph-name="hungarumlaut" unicode="&#x2dd;" horiz-adv-x="500" 
d="M138 610h-20q-10 0 -8 8l94 184q7 10 15 10h49q10 0 10 -10l-114 -176q-3 -4 -8 -10t-18 -6zM306 610h-20q-4 0 -7 2.5t-2 5.5l94 184q7 10 15 10h49q10 0 10 -10l-113 -176q-3 -4 -8 -10t-18 -6z" />
    <glyph glyph-name="glyph334" horiz-adv-x="500" 
d="M208 -234h-24q-4 0 -6 2t-1 5l72 159q5 10 13 10h48q4 0 7 -3t2 -7l-88 -151q-2 -4 -7 -9.5t-16 -5.5z" />
    <glyph glyph-name="Wgrave" unicode="&#x1e80;" horiz-adv-x="832" 
d="M475 650q17 -107 55.5 -297.5t59.5 -273.5q3 -13 13 -13q3 0 7 1t7 13q19 83 57 293t50 297q1 10 14 10h53q7 0 7 -10q-10 -71 -56.5 -305.5t-73.5 -352.5q-3 -12 -14 -12h-103q-9 0 -12 10q-14 56 -54 253t-60 312q-1 10 -9 10q-10 0 -11 -10q-21 -114 -63 -309.5
t-58 -254.5q-1 -3 -3 -7t-10 -4h-104q-10 0 -12 10q-26 123 -71.5 371.5t-49.5 289.5q0 9 9 9h56q7 0 8 -10q11 -86 48 -296t56 -295q3 -13 13 -13q2 0 6 1t7 13q19 77 60.5 269.5t61.5 300.5q2 10 10 10h96q10 0 10 -10zM465 742h-27q-11 0 -17.5 2t-14.5 9l-152 135
q-4 3 -3.5 9.5t11.5 6.5h58q9 0 19 -10l131 -142q3 -3 1 -6.5t-6 -3.5z" />
    <glyph glyph-name="wgrave" unicode="&#x1e81;" horiz-adv-x="821" 
d="M650 8q-3 -8 -10 -8h-96q-6 0 -9 8q-2 6 -7.5 27.5t-40 153t-67.5 276.5q-1 6 -9 6q-9 0 -10 -6q-2 -9 -9.5 -38.5t-43.5 -165.5t-71 -253q-2 -8 -12 -8h-93q-6 0 -8 8q-22 69 -72.5 263.5t-62.5 254.5q0 9 7 9h61q5 0 7 -9t8 -37t33 -148t67 -276q2 -6 11 -6t10 6
q2 7 8.5 29.5t39.5 147t70 284.5q3 9 10 9h98q7 0 9 -9t8.5 -37t36.5 -150.5t70 -273.5q1 -6 10 -6t11 6q24 83 60.5 228.5t54.5 232.5q3 9 10 9h56q1 0 3.5 -2t2.5 -8q-9 -47 -62.5 -242t-78.5 -275zM444 610h-22q-4 0 -10.5 1t-15.5 15l-113 176q0 10 10 10h49q8 0 15 -10
l95 -184q2 -8 -8 -8z" />
    <glyph glyph-name="Wacute" unicode="&#x1e82;" horiz-adv-x="832" 
d="M475 650q17 -107 55.5 -297.5t59.5 -273.5q3 -13 13 -13q3 0 7 1t7 13q19 83 57 293t50 297q1 10 14 10h53q7 0 7 -10q-10 -71 -56.5 -305.5t-73.5 -352.5q-3 -12 -14 -12h-103q-9 0 -12 10q-14 56 -54 253t-60 312q-1 10 -9 10q-10 0 -11 -10q-21 -114 -63 -309.5
t-58 -254.5q-1 -3 -3 -7t-10 -4h-104q-10 0 -12 10q-26 123 -71.5 371.5t-49.5 289.5q0 9 9 9h56q7 0 8 -10q11 -86 48 -296t56 -295q3 -13 13 -13q2 0 6 1t7 13q19 77 60.5 269.5t61.5 300.5q2 10 10 10h96q10 0 10 -10zM401 742h-27q-4 0 -6 3.5t1 6.5l131 142
q10 10 19 10h58q11 0 11.5 -6.5t-3.5 -9.5l-152 -135q-3 -3 -9.5 -7t-22.5 -4z" />
    <glyph glyph-name="wacute" unicode="&#x1e83;" horiz-adv-x="821" 
d="M650 8q-3 -8 -10 -8h-96q-6 0 -9 8q-2 6 -7.5 27.5t-40 153t-67.5 276.5q-1 6 -9 6q-9 0 -10 -6q-2 -9 -9.5 -38.5t-43.5 -165.5t-71 -253q-2 -8 -12 -8h-93q-6 0 -8 8q-22 69 -72.5 263.5t-62.5 254.5q0 9 7 9h61q5 0 7 -9t8 -37t33 -148t67 -276q2 -6 11 -6t10 6
q2 7 8.5 29.5t39.5 147t70 284.5q3 9 10 9h98q7 0 9 -9t8.5 -37t36.5 -150.5t70 -273.5q1 -6 10 -6t11 6q24 83 60.5 228.5t54.5 232.5q3 9 10 9h56q1 0 3.5 -2t2.5 -8q-9 -47 -62.5 -242t-78.5 -275zM400 610h-20q-4 0 -7 2.5t-2 5.5l94 184q7 10 15 10h49q10 0 10 -10
l-113 -176q-3 -4 -8 -10t-18 -6z" />
    <glyph glyph-name="Wdieresis" unicode="&#x1e84;" horiz-adv-x="832" 
d="M475 650q17 -107 55.5 -297.5t59.5 -273.5q3 -13 13 -13q3 0 7 1t7 13q19 83 57 293t50 297q1 10 14 10h53q7 0 7 -10q-10 -71 -56.5 -305.5t-73.5 -352.5q-3 -12 -14 -12h-103q-9 0 -12 10q-14 56 -54 253t-60 312q-1 10 -9 10q-10 0 -11 -10q-21 -114 -63 -309.5
t-58 -254.5q-1 -3 -3 -7t-10 -4h-104q-10 0 -12 10q-26 123 -71.5 371.5t-49.5 289.5q0 9 9 9h56q7 0 8 -10q11 -86 48 -296t56 -295q3 -13 13 -13q2 0 6 1t7 13q19 77 60.5 269.5t61.5 300.5q2 10 10 10h96q10 0 10 -10zM352 765h-56q-10 0 -10 10v59q0 10 10 10h56
q10 0 10 -10v-59q0 -10 -10 -10zM544 765h-56q-10 0 -10 10v59q0 10 10 10h56q10 0 10 -10v-59q0 -10 -10 -10z" />
    <glyph glyph-name="wdieresis" unicode="&#x1e85;" horiz-adv-x="821" 
d="M650 8q-3 -8 -10 -8h-96q-6 0 -9 8q-2 6 -7.5 27.5t-40 153t-67.5 276.5q-1 6 -9 6q-9 0 -10 -6q-2 -9 -9.5 -38.5t-43.5 -165.5t-71 -253q-2 -8 -12 -8h-93q-6 0 -8 8q-22 69 -72.5 263.5t-62.5 254.5q0 9 7 9h61q5 0 7 -9t8 -37t33 -148t67 -276q2 -6 11 -6t10 6
q2 7 8.5 29.5t39.5 147t70 284.5q3 9 10 9h98q7 0 9 -9t8.5 -37t36.5 -150.5t70 -273.5q1 -6 10 -6t11 6q24 83 60.5 228.5t54.5 232.5q3 9 10 9h56q1 0 3.5 -2t2.5 -8q-9 -47 -62.5 -242t-78.5 -275zM342 649h-56q-10 0 -10 10v59q0 10 10 10h56q10 0 10 -10v-59
q0 -10 -10 -10zM534 649h-56q-10 0 -10 10v59q0 10 10 10h56q10 0 10 -10v-59q0 -10 -10 -10z" />
    <glyph glyph-name="Ygrave" unicode="&#x1ef2;" horiz-adv-x="489" 
d="M410 669q6 11 15 11h54q8 0 5 -10q-3 -6 -12.5 -26t-56 -113.5t-102.5 -191.5q-25 -43 -30.5 -54.5t-5.5 -21.5v-253q0 -10 -10 -10h-53q-10 0 -10 10v254q0 4 -2 13t-30 59q-34 61 -94 179t-74 155q-1 4 1 7t6 3h57q10 0 14 -11q24 -56 73 -160t73 -149q3 -5 6.5 -10.5
t9.5 -5.5q2 0 4.5 1t11.5 15q26 44 74 144t76 165zM289 742h-27q-11 0 -17.5 2t-14.5 9l-152 135q-4 3 -3.5 9.5t11.5 6.5h58q9 0 19 -10l131 -142q3 -3 1 -6.5t-6 -3.5z" />
    <glyph glyph-name="ygrave" unicode="&#x1ef3;" horiz-adv-x="469" 
d="M226 5q0 4 -8 4h-19q-16 0 -21 12q-30 81 -87.5 267.5t-68.5 237.5q0 9 9 9h57q7 0 9 -9q20 -90 61.5 -234t68.5 -221q2 -6 11 -6t13 8q59 177 125 453q2 9 13 9h50q8 0 8 -10q-9 -47 -64.5 -232.5t-83.5 -264.5q-27 -78 -50.5 -121t-57 -65t-94.5 -22q-31 0 -46 4
q-6 1 -6 10v32q1 8 8 8l23 -1q34 0 58 6t39.5 22t27 38.5t21.5 50.5q4 9 4 15zM263 610h-22q-4 0 -10.5 1t-15.5 15l-113 176q0 10 10 10h49q8 0 15 -10l95 -184q2 -8 -8 -8z" />
    <glyph glyph-name="endash" unicode="&#x2013;" horiz-adv-x="465" 
d="M406 275h-347q-10 0 -10 10v30q0 10 10 10h347q10 0 10 -10v-30q0 -10 -10 -10z" />
    <glyph glyph-name="emdash" unicode="&#x2014;" horiz-adv-x="665" 
d="M606 275h-547q-10 0 -10 10v30q0 10 10 10h547q10 0 10 -10v-30q0 -10 -10 -10z" />
    <glyph glyph-name="quoteleft" unicode="&#x2018;" horiz-adv-x="239" 
d="M139 741h23q10 0 10 -10l-33 -250q0 -10 -10 -10h-51q-5 0 -8 3t-2 7l47 230q3 13 7 21.5t17 8.5z" />
    <glyph glyph-name="quoteright" unicode="&#x2019;" horiz-adv-x="239" 
d="M99 471h-22q-10 0 -10 10l33 250q1 10 10 10h51q5 0 8 -2.5t2 -7.5l-48 -230q-3 -13 -7 -21.5t-17 -8.5z" />
    <glyph glyph-name="quotesinglbase" unicode="&#x201a;" horiz-adv-x="239" 
d="M99 -89h-22q-10 0 -10 10l33 250q2 10 10 10h51q5 0 8 -2.5t2 -7.5l-48 -230q-3 -13 -7 -21.5t-17 -8.5z" />
    <glyph glyph-name="quotedblleft" unicode="&#x201c;" horiz-adv-x="389" 
d="M139 741h23q10 0 10 -10l-33 -250q-2 -10 -10 -10h-51q-5 0 -8 3t-2 7l47 230q3 13 7 21.5t17 8.5zM289 741h23q10 0 10 -10l-33 -250q-2 -10 -10 -10h-51q-5 0 -8 3t-2 7l47 230q3 13 7 21.5t17 8.5z" />
    <glyph glyph-name="quotedblright" unicode="&#x201d;" horiz-adv-x="389" 
d="M249 471h-22q-10 0 -10 10l33 250q2 10 10 10h51q5 0 8 -3t2 -7l-48 -230q-3 -13 -7 -21.5t-17 -8.5zM99 471h-22q-10 0 -10 10l33 250q2 10 10 10h51q5 0 8 -3t2 -7l-48 -230q-3 -13 -7 -21.5t-17 -8.5z" />
    <glyph glyph-name="quotedblbase" unicode="&#x201e;" horiz-adv-x="389" 
d="M249 -89h-22q-10 0 -10 10l33 250q2 10 10 10h51q5 0 8 -2.5t2 -7.5l-48 -230q-3 -13 -7 -21.5t-17 -8.5zM99 -89h-22q-10 0 -10 10l33 250q2 10 10 10h51q5 0 8 -2.5t2 -7.5l-48 -230q-3 -13 -7 -21.5t-17 -8.5z" />
    <glyph glyph-name="dagger" unicode="&#x2020;" horiz-adv-x="545" 
d="M241 432v263q0 10 10 10h45q10 0 10 -10v-263q0 -6 6 -6h181q10 0 10 -10v-36q0 -10 -10 -10h-181q-6 0 -6 -6v-488q0 -10 -10 -10h-45q-10 0 -10 10v488q0 6 -6 6h-183q-10 0 -10 10v36q0 10 10 10h183q6 0 6 6z" />
    <glyph glyph-name="daggerdbl" unicode="&#x2021;" horiz-adv-x="545" 
d="M241 126v318q0 6 -6 6h-183q-10 0 -10 10v36q0 10 10 10h183q6 0 6 6v183q0 10 10 10h45q10 0 10 -10v-183q0 -6 6 -6h181q10 0 10 -10v-36q0 -10 -10 -10h-181q-6 0 -6 -6v-319q0 -2 2 -3.5t4 -1.5h181q10 0 10 -10v-36q0 -10 -10 -10h-181q-2 0 -4 -1.5t-2 -3.5v-183
q0 -10 -10 -10h-45q-10 0 -10 10v182q0 6 -6 6h-183q-10 0 -10 10v36q0 10 10 10h183q6 0 6 6z" />
    <glyph glyph-name="bullet" unicode="&#x2022;" horiz-adv-x="498" 
d="M252 519q33 0 60.5 -12t49.5 -31t40.5 -53t18.5 -77q0 -71 -50.5 -121.5t-120.5 -50.5q-26 0 -55.5 9t-55.5 30t-44.5 55.5t-18.5 78.5q0 35 13.5 66.5t38 55.5t56.5 37t68 13z" />
    <glyph glyph-name="ellipsis" unicode="&#x2026;" horiz-adv-x="801" 
d="M169 0h-71q-10 0 -10 10v79q0 10 10 10h71q10 0 10 -10v-79q0 -10 -10 -10zM436 0h-71q-10 0 -10 10v79q0 10 10 10h71q10 0 10 -10v-79q0 -10 -10 -10zM703 0h-71q-10 0 -10 10v79q0 10 10 10h71q10 0 10 -10v-79q0 -10 -10 -10z" />
    <glyph glyph-name="perthousand" unicode="&#x2030;" horiz-adv-x="1012" 
d="M132 10l402 660q6 10 14 10h29q4 0 7 -3t2 -7l-402 -660q-6 -10 -14 -10h-29q-4 0 -7 3t-2 7zM122 518q0 -37 6 -70t17 -44q11 -12 39 -12q29 0 40 12q8 8 15.5 37t7.5 77q0 37 -6 70.5t-17 45.5q-12 12 -40 12q-27 0 -39 -12q-8 -9 -15.5 -38.5t-7.5 -77.5zM305 518
q0 -31 -6 -65.5t-16.5 -56t-20.5 -29.5q-28 -21 -78 -21t-77 21q-11 8 -21.5 29.5t-16.5 56t-6 65.5t6 65.5t16.5 56t21.5 30.5q25 20 77 20q51 0 78 -20q21 -18 32 -63t11 -89zM467 161q0 -35 6 -68.5t17 -45.5q11 -11 40 -11q28 0 39 11q8 9 16 38.5t8 75.5q0 37 -6.5 71
t-17.5 45q-11 12 -39 12q-29 0 -40 -12q-8 -8 -15.5 -38t-7.5 -78zM651 161q0 -31 -6 -65.5t-16.5 -56t-21.5 -29.5q-25 -20 -77 -20q-50 0 -77 21q-11 8 -21.5 29.5t-16.5 55.5t-6 65q0 32 6 66.5t16.5 56t21.5 29.5q25 20 77 20t77 -20q11 -8 21.5 -29.5t16.5 -56t6 -66.5
zM772 161q0 -35 6 -68.5t17 -45.5q11 -11 40 -11q28 0 39 11q8 9 16 38.5t8 75.5q0 37 -6.5 71t-17.5 45q-11 12 -39 12q-29 0 -40 -12q-8 -8 -15.5 -38t-7.5 -78zM956 161q0 -31 -6 -65.5t-16.5 -56t-21.5 -29.5q-25 -20 -77 -20q-50 0 -77 21q-11 8 -21.5 29.5t-16.5 55.5
t-6 65q0 32 6 66.5t16.5 56t21.5 29.5q25 20 77 20t77 -20q11 -8 21.5 -29.5t16.5 -56t6 -66.5z" />
    <glyph glyph-name="guilsinglleft" unicode="&#x2039;" horiz-adv-x="330" 
d="M67 250v43q0 8 10 18l173 173q4 2 8 -0.5t4 -7.5v-36q0 -5 -0.5 -12t-10.5 -17l-120 -129q-3 -4 -3 -10t3 -11l120 -128q3 -3 7 -8.5t4 -20.5v-37q0 -6 -3.5 -8.5t-8.5 0.5l-173 173q-10 10 -10 18z" />
    <glyph glyph-name="guilsinglright" unicode="&#x203a;" horiz-adv-x="330" 
d="M262 292v-43q0 -8 -10 -18l-173 -173q-4 -2 -8 0.5t-4 7.5v36q0 5 0.5 12t10.5 17l120 129q3 5 3 10q0 7 -3 11l-120 128q-3 3 -7 8.5t-4 20.5v37q0 6 3.5 8.5t8.5 -0.5l173 -173q10 -10 10 -18z" />
    <glyph glyph-name="fraction" unicode="&#x2044;" horiz-adv-x="170" 
d="M-94 -40l286 731q4 10 10 10h45q3 0 5 -3t1 -7l-288 -731q-4 -10 -10 -10h-43q-3 0 -5 3t-1 7z" />
    <glyph glyph-name="Euro" unicode="&#x20ac;" 
d="M491 9q-24 -8 -60.5 -13.5t-71.5 -5.5q-78 0 -128 28t-76.5 83t-30.5 146q0 7 -9 7h-52q-10 0 -10 10v31q0 10 10 10h53q2 0 5.5 0.5t3.5 7.5v60q0 7 -9 7h-53q-10 0 -10 10v30q0 10 10 10h54q9 0 9 5q1 56 16.5 103t46 81t75.5 52.5t102 18.5q27 0 64.5 -4.5t59.5 -14.5
q5 -2 5 -7l-3 -44q0 -1 -1.5 -4t-6.5 -2q-20 7 -52.5 12t-62.5 5q-55 0 -93 -21.5t-59.5 -63.5t-23.5 -106q0 -3 0.5 -6.5t6.5 -3.5h226q10 0 10 -10v-30q0 -10 -10 -10h-225q-3 0 -7 -0.5t-4 -6.5v-60q0 -8 10 -8h196q10 0 10 -10v-31q0 -10 -10 -10h-195q-2 0 -4.5 -1
t-2.5 -9q2 -100 43.5 -147.5t129.5 -47.5q64 0 112 16l6 1q6 0 7 -5l3 -41v-3q0 -6 -4 -8z" />
    <glyph glyph-name="uni2113" unicode="&#x2113;" horiz-adv-x="545" 
d="M221 524v-252q0 -16 6 -16q13 0 38 22q33 29 52 80.5t19 123.5q0 80 -12.5 115t-45.5 35q-24 0 -37 -16t-16.5 -41.5t-3.5 -50.5zM157 138v15q0 8 -4 8q-3 0 -22.5 -11.5t-24.5 -11.5t-7 5l-16 33l-1 5q0 6 7 9l57 29q3 1 7 5.5t4 23.5v276q0 47 11 84.5t39 56.5t69 19
q64 0 92.5 -43.5t28.5 -155.5q1 -102 -37.5 -169.5t-126.5 -119.5q-3 -2 -7.5 -8t-4.5 -37q0 -58 18.5 -81.5t62.5 -23.5h52q10 0 10 -11l-3 -25q-1 -3 -4.5 -6t-5.5 -4q-26 -9 -65 -9q-64 0 -96.5 32.5t-32.5 114.5z" />
    <glyph glyph-name="trademark" unicode="&#x2122;" horiz-adv-x="713" 
d="M123 347v286l-3 3h-62q-6 0 -6 6v32q0 6 6 6h183q2 0 3.5 -2t1.5 -4v-32q0 -2 -1.5 -4t-3.5 -2h-61l-3 -3v-286q0 -2 -2 -3.5t-4 -1.5h-42q-2 0 -4 1.5t-2 3.5zM453 490l53 184q2 6 7 6h71q2 0 3.5 -2t1.5 -4v-327q0 -2 -1.5 -3.5t-3.5 -1.5h-44q-2 0 -3.5 1.5t-1.5 3.5
l1 265q0 5 -3 6l-4 -6l-51 -176q-2 -6 -3.5 -8t-5.5 -2h-43q-2 0 -5 0.5t-6 8.5l-47 176q-1 5 -4 7q-3 -2 -3 -8l1 -263q0 -2 -1.5 -3.5t-3.5 -1.5h-42q-2 0 -3.5 1.5t-1.5 3.5v327q0 2 1.5 4t3.5 2h73q4 0 6 -6l50 -184q2 -5 5 -7q3 2 4 7z" />
    <glyph glyph-name="estimated" unicode="&#x212e;" horiz-adv-x="853" 
d="M675 136h68q-69 -78 -148.5 -113t-181.5 -35q-73 0 -141 24.5t-121 71t-83 113.5t-30 147q0 77 32 145t87.5 117.5t128.5 76.5t151 27q44 0 97 -10.5t102.5 -37.5t85 -66t58 -85t30 -88t7.5 -73v-4h-613l-8 -10v-230q90 -82 223 -82q40 0 87.5 10.5t91.5 37.5t77 64z
M652 382l8 9v205q-48 44 -103.5 61t-119.5 17q-65 0 -127.5 -19.5t-113.5 -67.5v-196l8 -9h448z" />
    <glyph glyph-name="partialdiff" unicode="&#x2202;" horiz-adv-x="583" 
d="M165 722q-5 5 -3.5 9t5.5 4h67q7 0 26 -16q75 -63 127.5 -125t81.5 -136.5t29 -199.5q0 -72 -11 -122.5t-35.5 -83t-66 -48t-102.5 -15.5q-46 0 -81.5 8.5t-59.5 26t-39.5 44.5t-24.5 70t-9 113q0 100 19.5 155.5t61.5 83t114 27.5q33 0 64 -8t36 -8q7 0 7 7q0 5 -9 20
q-20 31 -81.5 91.5t-115.5 102.5zM142 245q0 -75 10 -117t38 -64t93 -22q51 0 81 14.5t46 56t16 134.5q0 89 -14 133t-46 64t-88 20q-51 0 -79.5 -18t-42.5 -62.5t-14 -138.5z" />
    <glyph glyph-name="product" unicode="&#x220f;" horiz-adv-x="747" 
d="M124 680h499q10 0 10 -10v-845q0 -10 -10 -10h-51q-10 0 -10 10v788q0 6 -6 6h-365q-6 0 -6 -6v-788q0 -10 -10 -10h-51q-10 0 -10 10v845q0 10 10 10z" />
    <glyph glyph-name="summation" unicode="&#x2211;" horiz-adv-x="554" 
d="M356 246q0 -12 -6 -22l-217 -327q-6 -9 -6 -18q0 -8 7 -8h358q11 0 11 -10v-43q0 -10 -11 -10h-435q-10 0 -10 10v61q0 8 12 30l212 318q5 9 5 20q0 10 -5 20l-204 307q-12 20 -12 30v66q0 10 10 10h412q11 0 11 -10v-43q0 -10 -11 -10h-330q-7 0 -7 -9t6 -18l204 -321
q6 -9 6 -23z" />
    <glyph glyph-name="minus" unicode="&#x2212;" 
d="M474 234h-399q-10 0 -10 10v35q0 11 10 11h399q11 0 11 -11v-35q0 -10 -11 -10z" />
    <glyph glyph-name="uni2215" unicode="&#x2215;" horiz-adv-x="170" 
d="M-94 -40l286 731q4 10 10 10h45q3 0 5 -3t1 -7l-288 -731q-4 -10 -10 -10h-43q-3 0 -5 3t-1 7z" />
    <glyph glyph-name="uni2219" unicode="&#x2219;" horiz-adv-x="267" 
d="M169 251h-71q-10 0 -10 10v79q0 10 10 10h71q10 0 10 -10v-79q0 -10 -10 -10z" />
    <glyph glyph-name="radical" unicode="&#x221a;" horiz-adv-x="493" 
d="M171 321l58 -333q1 -8 15 -8q12 0 15 8l159 681q2 11 16 11h51q8 0 5 -10l-185 -740q0 -10 -10 -10h-106q-10 0 -10 10l-72 356q0 6 -6 6h-66q-10 0 -10 10v35q0 10 10 10h119q12 0 17 -26z" />
    <glyph glyph-name="infinity" unicode="&#x221e;" horiz-adv-x="888" 
d="M445 127q-7 0 -10 -6q-22 -53 -73.5 -88t-117.5 -35q-58 0 -99 16t-65.5 45.5t-35.5 71.5t-11 96t11 96t35.5 71.5t65.5 45.5t99 16q48 0 91 -20.5t66.5 -49.5t33.5 -53q3 -6 10 -6q5 0 8 6q15 38 48.5 68.5t72.5 42.5t70 12q58 0 99 -16t65.5 -45.5t35.5 -71.5t11 -96
t-11 -96t-35.5 -71.5t-65.5 -45.5t-99 -16q-31 0 -70 12t-72.5 42.5t-48.5 68.5q-3 6 -8 6zM248 61q70 0 114 47t44 120q0 72 -44 117.5t-114 45.5q-51 0 -82 -15.5t-46 -50t-15 -98.5q0 -87 31 -126.5t112 -39.5zM639 392q-69 0 -113.5 -46.5t-44.5 -119.5q0 -72 44.5 -118
t113.5 -46q72 0 107.5 34t35.5 131q0 43 -7 73.5t-23 51t-44 30.5t-69 10z" />
    <glyph glyph-name="integral" unicode="&#x222b;" horiz-adv-x="310" 
d="M118 -66v661q0 165 113 165q27 0 56 -9l-6 -50q-19 10 -43 10q-68 0 -68 -101v-676q0 -154 -116 -154q-29 0 -51 7l5 50q24 -8 41 -8q37 0 53 26.5t16 78.5z" />
    <glyph glyph-name="approxequal" unicode="&#x2248;" 
d="M291 366q52 -35 80 -35q24 0 38 15t22 48l2.5 7.5t7.5 4.5l39 -9q4 -1 4 -8q-1 -24 -15.5 -52t-39.5 -45.5t-59 -17.5q-21 0 -44 7.5t-69 38.5q-21 15 -40.5 26t-37.5 11q-49 0 -63 -62q-1 -3 -2.5 -8t-7.5 -5l-37 10q-4 1 -4 6q0 22 14.5 50t39 46.5t58.5 18.5
q22 0 44 -7t70 -40zM291 206q51 -36 80 -36q24 0 38 15t22 48q1 3 3 8t7 5l39 -10q4 -1 4 -7q-1 -25 -15.5 -53t-39.5 -45.5t-59 -17.5q-20 0 -43.5 7.5t-69.5 39.5q-21 15 -40.5 25.5t-37.5 10.5q-49 0 -63 -61q-1 -3 -2.5 -8t-7.5 -5l-37 9q-4 1 -4 6q0 22 14.5 50.5
t39 47t58.5 18.5q22 0 44 -7t70 -40z" />
    <glyph glyph-name="notequal" unicode="&#x2260;" 
d="M191 154h-116q-10 0 -10 10v35q0 11 10 11h143q9 0 12 8l33 76q4 9 3.5 13t-8.5 4h-183q-4 0 -7 3.5t-3 7.5v35q0 11 10 11h207q11 0 15 8l48 113q4 9 12 9h46q6 0 7 -5t-2 -10l-44 -101q-1 -3 -2.5 -8.5t8.5 -5.5h104q11 0 11 -11v-35q0 -4 -3 -7.5t-8 -3.5h-129
q-12 0 -16 -12l-29 -69q-5 -12 -5.5 -16t5.5 -4h174q11 0 11 -11v-35q0 -10 -11 -10h-196q-3 0 -6.5 -1t-7.5 -8l-51 -120q-3 -8 -11 -8h-52q-7 0 -4 10l53 119q3 8 -8 8z" />
    <glyph glyph-name="lessequal" unicode="&#x2264;" 
d="M474 22h-399q-10 0 -10 10v35q0 11 10 11h399q11 0 11 -11v-35q0 -10 -11 -10zM474 544v-34q0 -17 -14 -22l-315 -128q-6 -4 -6 -12q0 -7 6 -11l315 -129q14 -5 14 -22v-34q0 -4 -3 -7.5t-7 -3.5l-378 162q-11 6 -11 15v59q0 9 11 15l378 163q10 0 10 -11z" />
    <glyph glyph-name="greaterequal" unicode="&#x2265;" 
d="M475 22h-399q-11 0 -11 10v35q0 11 11 11h399q10 0 10 -11v-35q0 -10 -10 -10zM76 510v34q0 11 10 11l378 -163q11 -6 11 -15v-59q0 -9 -11 -15l-378 -162q-4 0 -7 3.5t-3 7.5v34q0 17 14 22l315 129q6 4 6 11q0 8 -6 12l-315 128q-14 5 -14 22z" />
    <glyph glyph-name="lozenge" unicode="&#x25ca;" horiz-adv-x="470" 
d="M432 348l-168 -348h-60l-169 348l169 349h60zM90 348l78 -162q52 -109 66 -146h2q52 119 68 152l74 155l-81 163q-46 92 -63 143h-2q-27 -70 -79.5 -177.5t-62.5 -127.5z" />
    <glyph glyph-name="uniF8FF" unicode="&#xf8ff;" horiz-adv-x="485" 
d="M263 111h-53v63h53v-63zM257 222h-46v16q0 37 8 66t49 65q21 21 33.5 39t12.5 41q0 33 -21.5 56.5t-50.5 23.5q-30 0 -51 -22t-26 -68l-48 8q7 67 42 98.5t86 31.5q52 0 85 -34t33 -90q0 -31 -13 -56t-47 -57q-25 -23 -34 -36.5t-10.5 -28.5t-1.5 -36v-17zM47 47h391v585
h-391v-585zM0 680h485v-680h-485v680z" />
    <glyph glyph-name="uniF001" unicode="&#xf001;" horiz-adv-x="563" 
d="M458 0h-52q-10 0 -10 10v458q0 11 -12 11h-190q-6 0 -6 -6v-463q0 -10 -10 -10h-51q-10 0 -10 10v463q0 6 -6 6h-81q-10 0 -10 10v36q0 10 10 10h81q6 0 6 6v47q0 79 52.5 113t153.5 34q70 0 128 -7q4 -1 6 -4.5t1 -8.5l-3 -33q-3 -8 -12 -6q-46 6 -116 6
q-72 0 -105.5 -20t-33.5 -77v-44q0 -6 6 -6h264q10 0 10 -10v-515q0 -10 -10 -10z" />
    <glyph glyph-name="uniF002" unicode="&#xf002;" horiz-adv-x="584" 
d="M466 714v-594q0 -44 9.5 -59t39.5 -15h41q9 0 9 -8l-2 -31q-2 -8 -8 -9q-30 -7 -61 -7q-57 0 -78 28t-21 101v539q0 10 -2 12q-4 4 -34 7.5t-62 3.5q-59 0 -84 -19t-25 -76v-46q0 -6 6 -6h97q10 0 10 -10v-36q0 -10 -10 -10h-97q-6 0 -6 -6v-463q0 -10 -10 -10h-51
q-10 0 -10 10v463q0 6 -6 6h-81q-10 0 -10 10v36q0 10 10 10h81q6 0 6 6v49q0 63 21.5 92t65 41t104.5 12q69 0 148 -11q10 -2 10 -10z" />
    <glyph glyph-name="uni2070" unicode="&#x2070;" horiz-adv-x="340" 
d="M96 642q0 -47 7.5 -94t19.5 -62t47 -15q7 0 21.5 1.5t24.5 13.5q9 11 18.5 53t9.5 103q0 62 -9.5 103.5t-18.5 52.5q-11 16 -46 16q-36 0 -47 -16q-9 -11 -18 -52t-9 -104zM308 642q0 -57 -13.5 -115.5t-38.5 -80.5q-6 -5 -23 -14.5t-63 -9.5q-34 0 -53 5.5t-34 18.5
q-25 22 -38 80.5t-13 115.5q0 40 7 84.5t19.5 72.5t24.5 39q6 5 24.5 15t62.5 10q23 0 44 -4t42 -21q12 -11 25 -39t20 -72.5t7 -84.5z" />
    <glyph glyph-name="uni2074" unicode="&#x2074;" horiz-adv-x="340" 
d="M21 535v44q0 3 0.5 8t8 26.5t116.5 236.5q2 6 8 6h49q7 0 7 -7q-131 -242 -131 -263q0 -5 4 -5h115q3 1 3 4v133q0 6 7 6h48q6 0 6 -6v-133q0 -4 4 -4h51q2 0 4 -2.5t2 -4.5v-39q0 -6 -6 -6h-51q-4 0 -4 -4v-91q0 -6 -6 -6h-48q-2 0 -4.5 2t-2.5 4v91q0 3 -3 4h-171
q-6 0 -6 6z" />
    <glyph glyph-name="uni2075" unicode="&#x2075;" horiz-adv-x="340" 
d="M279 804h-154q-5 -1 -5 -6l-4 -104q0 -5 4 -5q58 0 99 -10.5t59 -39.5t18 -74q0 -72 -37 -107.5t-128 -35.5q-17 0 -45 3t-42 6q-4 1 -6 6l5 42q1 4 7 4q40 -8 75 -8q58 0 82 18.5t24 67.5q0 25 -8 42t-34 26.5t-98 9.5h-25q-9 0 -9 11l7 198q0 2 0.5 5t6.5 3h208
q6 0 6 -6v-40q0 -6 -6 -6z" />
    <glyph glyph-name="uni2076" unicode="&#x2076;" horiz-adv-x="340" 
d="M247 555q0 36 -6.5 54.5t-22 26.5t-48.5 8q-36 0 -52.5 -9t-21 -29.5t-4.5 -51.5q0 -39 10 -56.5t28 -21t40 -3.5q35 0 51 7.5t21 26.5t5 48zM237 847q-84 -90 -116 -156l-2 -7q0 -4 5 -4q4 0 26 4t41 4q35 0 60.5 -8t41.5 -32.5t16 -86.5q0 -42 -9 -72.5t-36.5 -48.5
t-94.5 -18q-75 0 -107 29t-32 104q0 71 27.5 136t107.5 159q5 6 14 6h51q5 0 7 -2.5t0 -6.5z" />
    <glyph glyph-name="uni2077" unicode="&#x2077;" horiz-adv-x="340" 
d="M291 789q-15 -38 -56 -115t-55 -119q-17 -51 -17 -119q0 -8 -7 -8h-48q-9 0 -9 6v16q0 52 19 108.5t56.5 124t46 85.5t8.5 31q-1 3 -4 3h-176q-2 0 -4 2.5t-2 4.5v41q0 6 6 6h239q7 0 7 -6v-42q0 -7 -4 -19z" />
    <glyph glyph-name="uni2078" unicode="&#x2078;" horiz-adv-x="340" 
d="M102 657q-27 12 -45.5 38.5t-18.5 62.5q0 57 32.5 81t99.5 24t99 -24t32 -81q0 -26 -14 -54t-49 -44q-4 -2 -4 -5t4 -5q38 -20 56.5 -48t18.5 -69q0 -56 -31 -83.5t-112 -27.5q-82 0 -113 27t-31 83q0 41 18.5 69t56.5 46q5 1 5 5zM252 537q0 19 -8.5 40.5t-29.5 36.5
t-45 15q-33 0 -57 -26.5t-24 -66.5q0 -37 19 -51.5t63 -14.5t63 15t19 52zM240 754q0 33 -15 47t-54 14q-41 0 -57 -13.5t-16 -47.5q0 -24 11 -44t28 -28.5t33 -8.5q15 0 32 8.5t27.5 28.5t10.5 44z" />
    <glyph glyph-name="uni2079" unicode="&#x2079;" horiz-adv-x="340" 
d="M92 730q0 -45 12 -67t65 -22q36 0 52.5 9t21 29.5t4.5 51.5q0 39 -10 56.5t-28.5 21t-39.5 3.5q-46 0 -61.5 -15t-15.5 -67zM102 437q33 35 66.5 79t49.5 78l2 7q0 4 -5 4q-1 0 -24 -4.5t-43 -4.5q-35 0 -60.5 8t-41.5 33t-16 87q0 42 9 72.5t36.5 48.5t94.5 18
q75 0 107 -29t32 -104q0 -72 -27.5 -137t-107.5 -159q-5 -6 -14 -6h-51q-5 0 -7 2.5t0 6.5z" />
    <glyph glyph-name="zero.dnom" horiz-adv-x="340" 
d="M96 214q0 -47 7.5 -94t19.5 -62t47 -15q7 0 21.5 1.5t24.5 13.5q9 11 18.5 53t9.5 103q0 62 -9.5 103.5t-18.5 52.5q-11 16 -46 16q-36 0 -47 -16q-9 -11 -18 -52t-9 -104zM308 214q0 -57 -13.5 -115.5t-38.5 -80.5q-6 -5 -23 -14.5t-63 -9.5q-34 0 -53 5.5t-34 18.5
q-25 22 -38 80.5t-13 115.5q0 40 7 84.5t19.5 72.5t24.5 39q6 5 24.5 15t62.5 10q23 0 44 -4t42 -21q12 -11 25 -39t20 -72.5t7 -84.5z" />
    <glyph glyph-name="one.dnom" horiz-adv-x="340" 
d="M55 409l85 18h3l8 1h53q7 0 7 -6v-364q0 -3 3 -4h75q6 0 6 -6v-42q0 -6 -6 -6h-229q-2 0 -4.5 2t-2.5 4v42q0 2 2.5 4t4.5 2h84q4 0 4 4v312l-4 3l-89 -18q-6 0 -6 6v41q0 6 6 7z" />
    <glyph glyph-name="two.dnom" horiz-adv-x="340" 
d="M37 6v42q0 50 27 86.5t92 81.5q37 26 58 47.5t21 59.5q0 32 -18.5 44.5t-61.5 12.5q-19 0 -48 -3.5t-43 -7.5q-6 0 -6 6l-4 41q0 4 6 6q7 2 34.5 7.5t64.5 5.5q70 0 105 -23t35 -82q0 -49 -21.5 -80.5t-75.5 -66.5q-61 -40 -82 -66.5t-21 -58.5q0 -5 6 -5h189q7 0 7 -6
v-41q0 -2 -2.5 -4t-4.5 -2h-247q-10 0 -10 6z" />
    <glyph glyph-name="three.dnom" horiz-adv-x="340" 
d="M158 253l-3 -6q0 -3 3 -4q71 -1 105.5 -29.5t34.5 -83.5q0 -68 -37 -102t-121 -34q-48 0 -95 10q-6 2 -6 7l3 38q0 2 2.5 4t4.5 2q42 -8 83 -8q53 0 76.5 18t23.5 66q0 38 -28 54t-95 16h-29q-2 0 -4.5 2t-2.5 4v33q0 4 7 11q44 36 87.5 76.5t43.5 45.5q0 3 -4 4h-160
q-2 0 -3.5 2t-1.5 4v39q0 6 6 6h236q6 0 6 -4v-45q0 -5 -8 -14q-49 -51 -124 -112z" />
    <glyph glyph-name="four.dnom" horiz-adv-x="340" 
d="M21 107v44q0 3 0.5 8t8 26.5t116.5 236.5q2 6 8 6h49q7 0 7 -7q-131 -242 -131 -263q0 -5 4 -5h115q3 1 3 4v133q0 6 7 6h48q6 0 6 -6v-133q0 -4 4 -4h51q2 0 4 -2.5t2 -4.5v-39q0 -6 -6 -6h-51q-4 0 -4 -4v-91q0 -6 -6 -6h-48q-2 0 -4.5 2t-2.5 4v91q0 3 -3 4h-171
q-6 0 -6 6z" />
    <glyph glyph-name="five.dnom" horiz-adv-x="340" 
d="M279 376h-154q-5 -1 -5 -6l-4 -104q0 -5 4 -5q58 0 99 -10.5t59 -39.5t18 -74q0 -72 -37 -107.5t-128 -35.5q-17 0 -45 3t-42 6q-4 1 -6 6l5 42q1 4 7 4q40 -8 75 -8q58 0 82 18.5t24 67.5q0 25 -8 42t-34 26.5t-98 9.5h-25q-9 0 -9 11l7 198q0 2 0.5 5t6.5 3h208
q6 0 6 -6v-40q0 -6 -6 -6z" />
    <glyph glyph-name="six.dnom" horiz-adv-x="340" 
d="M247 127q0 36 -6.5 54.5t-22 26.5t-48.5 8q-36 0 -52.5 -9t-21 -29.5t-4.5 -51.5q0 -39 10 -56.5t28 -21t40 -3.5q35 0 51 7.5t21 26.5t5 48zM237 419q-84 -90 -116 -156l-2 -7q0 -4 5 -4q4 0 26 4t41 4q35 0 60.5 -8t41.5 -32.5t16 -86.5q0 -42 -9 -72.5t-36.5 -48.5
t-94.5 -18q-75 0 -107 29t-32 104q0 71 27.5 136t107.5 159q5 6 14 6h51q5 0 7 -2.5t0 -6.5z" />
    <glyph glyph-name="seven.dnom" horiz-adv-x="340" 
d="M291 361q-15 -38 -56 -115t-55 -119q-17 -51 -17 -119q0 -8 -7 -8h-48q-9 0 -9 6v16q0 52 19 108.5t56.5 124t46 85.5t8.5 31q-1 3 -4 3h-176q-2 0 -4 2.5t-2 4.5v41q0 6 6 6h239q7 0 7 -6v-42q0 -7 -4 -19z" />
    <glyph glyph-name="eight.dnom" horiz-adv-x="340" 
d="M102 229q-27 12 -45.5 38.5t-18.5 62.5q0 57 32.5 81t99.5 24t99 -24t32 -81q0 -26 -14 -54t-49 -44q-4 -2 -4 -5t4 -5q38 -20 56.5 -48t18.5 -69q0 -56 -31 -83.5t-112 -27.5q-82 0 -113 27t-31 83q0 41 18.5 69t56.5 46q5 1 5 5zM252 109q0 19 -8.5 40.5t-29.5 36.5
t-45 15q-33 0 -57 -26.5t-24 -66.5q0 -37 19 -51.5t63 -14.5t63 15t19 52zM240 326q0 33 -15 47t-54 14q-41 0 -57 -13.5t-16 -47.5q0 -24 11 -44t28 -28.5t33 -8.5q15 0 32 8.5t27.5 28.5t10.5 44z" />
    <glyph glyph-name="nine.dnom" horiz-adv-x="340" 
d="M92 302q0 -45 12 -67t65 -22q36 0 52.5 9t21 29.5t4.5 51.5q0 39 -10 56.5t-28.5 21t-39.5 3.5q-46 0 -61.5 -15t-15.5 -67zM102 9q33 35 66.5 79t49.5 78l2 7q0 4 -5 4q-1 0 -24 -4.5t-43 -4.5q-35 0 -60.5 8t-41.5 33t-16 87q0 42 9 72.5t36.5 48.5t94.5 18
q75 0 107 -29t32 -104q0 -72 -27.5 -137t-107.5 -159q-5 -6 -14 -6h-51q-5 0 -7 2.5t0 6.5z" />
    <glyph glyph-name="zero.frac" horiz-adv-x="340" 
d="M96 466q0 -47 7.5 -94t19.5 -62t47 -15q7 0 21.5 1.5t24.5 13.5q9 11 18.5 53t9.5 103q0 62 -9.5 103.5t-18.5 52.5q-11 16 -46 16q-36 0 -47 -16q-9 -11 -18 -52t-9 -104zM308 466q0 -57 -13.5 -115.5t-38.5 -80.5q-6 -5 -23 -14.5t-63 -9.5q-34 0 -53 5.5t-34 18.5
q-25 22 -38 80.5t-13 115.5q0 40 7 84.5t19.5 72.5t24.5 39q6 5 24.5 15t62.5 10q23 0 44 -4t42 -21q12 -11 25 -39t20 -72.5t7 -84.5z" />
    <glyph glyph-name="one.frac" horiz-adv-x="340" 
d="M55 661l85 18h3l8 1h53q7 0 7 -6v-364q0 -3 3 -4h75q6 0 6 -6v-42q0 -6 -6 -6h-229q-2 0 -4.5 2t-2.5 4v42q0 2 2.5 4t4.5 2h84q4 0 4 4v312l-4 3l-89 -18q-6 0 -6 6v41q0 6 6 7z" />
    <glyph glyph-name="two.frac" horiz-adv-x="340" 
d="M37 258v42q0 50 27 86.5t92 81.5q37 26 58 47.5t21 59.5q0 32 -18.5 44.5t-61.5 12.5q-19 0 -48 -3.5t-43 -7.5q-6 0 -6 6l-4 41q0 4 6 6q7 2 34.5 7.5t64.5 5.5q70 0 105 -23t35 -82q0 -49 -21.5 -80.5t-75.5 -66.5q-61 -40 -82 -66.5t-21 -58.5q0 -5 6 -5h189q7 0 7 -6
v-41q0 -2 -2.5 -4t-4.5 -2h-247q-10 0 -10 6z" />
    <glyph glyph-name="three.frac" horiz-adv-x="340" 
d="M158 505l-3 -6q0 -3 3 -4q71 -1 105.5 -29.5t34.5 -83.5q0 -68 -37 -102t-121 -34q-48 0 -95 10q-6 2 -6 7l3 38q0 2 2.5 4t4.5 2q42 -8 83 -8q53 0 76.5 18t23.5 66q0 38 -28 54t-95 16h-29q-2 0 -4.5 2t-2.5 4v33q0 4 7 11q44 36 87.5 76.5t43.5 45.5q0 3 -4 4h-160
q-2 0 -3.5 2t-1.5 4v39q0 6 6 6h236q6 0 6 -4v-45q0 -5 -8 -14q-49 -51 -124 -112z" />
    <glyph glyph-name="four.frac" horiz-adv-x="340" 
d="M21 359v44q0 3 0.5 8t8 26.5t116.5 236.5q2 6 8 6h49q7 0 7 -7q-131 -242 -131 -263q0 -5 4 -5h115q3 1 3 4v133q0 6 7 6h48q6 0 6 -6v-133q0 -4 4 -4h51q2 0 4 -2.5t2 -4.5v-39q0 -6 -6 -6h-51q-4 0 -4 -4v-91q0 -6 -6 -6h-48q-2 0 -4.5 2t-2.5 4v91q0 3 -3 4h-171
q-6 0 -6 6z" />
    <glyph glyph-name="five.frac" horiz-adv-x="340" 
d="M279 628h-154q-5 -1 -5 -6l-4 -104q0 -5 4 -5q58 0 99 -10.5t59 -39.5t18 -74q0 -72 -37 -107.5t-128 -35.5q-17 0 -45 3t-42 6q-4 1 -6 6l5 42q1 4 7 4q40 -8 75 -8q58 0 82 18.5t24 67.5q0 25 -8 42t-34 26.5t-98 9.5h-25q-9 0 -9 11l7 198q0 2 0.5 5t6.5 3h208
q6 0 6 -6v-40q0 -6 -6 -6z" />
    <glyph glyph-name="six.frac" horiz-adv-x="340" 
d="M247 379q0 36 -6.5 54.5t-22 26.5t-48.5 8q-36 0 -52.5 -9t-21 -29.5t-4.5 -51.5q0 -39 10 -56.5t28 -21t40 -3.5q35 0 51 7.5t21 26.5t5 48zM237 671q-84 -90 -116 -156l-2 -7q0 -4 5 -4q4 0 26 4t41 4q35 0 60.5 -8t41.5 -32.5t16 -86.5q0 -42 -9 -72.5t-36.5 -48.5
t-94.5 -18q-75 0 -107 29t-32 104q0 71 27.5 136t107.5 159q5 6 14 6h51q5 0 7 -2.5t0 -6.5z" />
    <glyph glyph-name="seven.frac" horiz-adv-x="340" 
d="M291 613q-15 -38 -56 -115t-55 -119q-17 -51 -17 -119q0 -8 -7 -8h-48q-9 0 -9 6v16q0 52 19 108.5t56.5 124t46 85.5t8.5 31q-1 3 -4 3h-176q-2 0 -4 2.5t-2 4.5v41q0 6 6 6h239q7 0 7 -6v-42q0 -7 -4 -19z" />
    <glyph glyph-name="eight.frac" horiz-adv-x="340" 
d="M102 481q-27 12 -45.5 38.5t-18.5 62.5q0 57 32.5 81t99.5 24t99 -24t32 -81q0 -26 -14 -54t-49 -44q-4 -2 -4 -5t4 -5q38 -20 56.5 -48t18.5 -69q0 -56 -31 -83.5t-112 -27.5q-82 0 -113 27t-31 83q0 41 18.5 69t56.5 46q5 1 5 5zM252 361q0 19 -8.5 40.5t-29.5 36.5
t-45 15q-33 0 -57 -26.5t-24 -66.5q0 -37 19 -51.5t63 -14.5t63 15t19 52zM240 578q0 33 -15 47t-54 14q-41 0 -57 -13.5t-16 -47.5q0 -24 11 -44t28 -28.5t33 -8.5q15 0 32 8.5t27.5 28.5t10.5 44z" />
    <glyph glyph-name="nine.frac" horiz-adv-x="340" 
d="M92 554q0 -45 12 -67t65 -22q36 0 52.5 9t21 29.5t4.5 51.5q0 39 -10 56.5t-28.5 21t-39.5 3.5q-46 0 -61.5 -15t-15.5 -67zM102 261q33 35 66.5 79t49.5 78l2 7q0 4 -5 4q-1 0 -24 -4.5t-43 -4.5q-35 0 -60.5 8t-41.5 33t-16 87q0 42 9 72.5t36.5 48.5t94.5 18
q75 0 107 -29t32 -104q0 -72 -27.5 -137t-107.5 -159q-5 -6 -14 -6h-51q-5 0 -7 2.5t0 6.5z" />
    <glyph glyph-name="uni2080" unicode="&#x2080;" horiz-adv-x="340" 
d="M96 59q0 -47 7.5 -94t19.5 -62t47 -15q7 0 21.5 1.5t24.5 13.5q9 11 18.5 53t9.5 103q0 62 -9.5 103.5t-18.5 52.5q-11 16 -46 16q-36 0 -47 -16q-9 -11 -18 -52t-9 -104zM308 59q0 -57 -13.5 -115.5t-38.5 -80.5q-6 -5 -23 -14.5t-63 -9.5q-34 0 -53 5.5t-34 18.5
q-25 22 -38 80.5t-13 115.5q0 40 7 84.5t19.5 72.5t24.5 39q6 5 24.5 15t62.5 10q23 0 44 -4t42 -21q12 -11 25 -39t20 -72.5t7 -84.5z" />
    <glyph glyph-name="uni2081" unicode="&#x2081;" horiz-adv-x="340" 
d="M55 254l85 18h3l8 1h53q7 0 7 -6v-364q0 -3 3 -4h75q6 0 6 -6v-42q0 -6 -6 -6h-229q-2 0 -4.5 2t-2.5 4v42q0 2 2.5 4t4.5 2h84q4 0 4 4v312l-4 3l-89 -18q-6 0 -6 6v41q0 6 6 7z" />
    <glyph glyph-name="uni2082" unicode="&#x2082;" horiz-adv-x="340" 
d="M37 -149v42q0 50 27 86.5t92 81.5q37 26 58 47.5t21 59.5q0 32 -18.5 44.5t-61.5 12.5q-19 0 -48 -3.5t-43 -7.5q-6 0 -6 6l-4 41q0 4 6 6q7 2 34.5 7.5t64.5 5.5q70 0 105 -23t35 -82q0 -49 -21.5 -80.5t-75.5 -66.5q-61 -40 -82 -66.5t-21 -58.5q0 -5 6 -5h189
q7 0 7 -6v-41q0 -2 -2.5 -4t-4.5 -2h-247q-10 0 -10 6z" />
    <glyph glyph-name="uni2083" unicode="&#x2083;" horiz-adv-x="340" 
d="M158 98l-3 -6q0 -3 3 -4q71 -1 105.5 -29.5t34.5 -83.5q0 -68 -37 -102t-121 -34q-48 0 -95 10q-6 2 -6 7l3 38q0 2 2.5 4t4.5 2q42 -8 83 -8q53 0 76.5 18t23.5 66q0 38 -28 54t-95 16h-29q-2 0 -4.5 2t-2.5 4v33q0 4 7 11q44 36 87.5 76.5t43.5 45.5q0 3 -4 4h-160
q-2 0 -3.5 2t-1.5 4v39q0 6 6 6h236q6 0 6 -4v-45q0 -5 -8 -14q-49 -51 -124 -112z" />
    <glyph glyph-name="uni2084" unicode="&#x2084;" horiz-adv-x="340" 
d="M21 -48v44q0 3 0.5 8t8 26.5t116.5 236.5q2 6 8 6h49q7 0 7 -7q-131 -242 -131 -263q0 -5 4 -5h115q3 1 3 4v133q0 6 7 6h48q6 0 6 -6v-133q0 -4 4 -4h51q2 0 4 -2.5t2 -4.5v-39q0 -6 -6 -6h-51q-4 0 -4 -4v-91q0 -6 -6 -6h-48q-2 0 -4.5 2t-2.5 4v91q0 3 -3 4h-171
q-6 0 -6 6z" />
    <glyph glyph-name="uni2085" unicode="&#x2085;" horiz-adv-x="340" 
d="M279 221h-154q-5 -1 -5 -6l-4 -104q0 -5 4 -5q58 0 99 -10.5t59 -39.5t18 -74q0 -72 -37 -107.5t-128 -35.5q-17 0 -45 3t-42 6q-4 1 -6 6l5 42q1 4 7 4q40 -8 75 -8q58 0 82 18.5t24 67.5q0 25 -8 42t-34 26.5t-98 9.5h-25q-9 0 -9 11l7 198q0 2 0.5 5t6.5 3h208
q6 0 6 -6v-40q0 -6 -6 -6z" />
    <glyph glyph-name="uni2086" unicode="&#x2086;" horiz-adv-x="340" 
d="M247 -28q0 36 -6.5 54.5t-22 26.5t-48.5 8q-36 0 -52.5 -9t-21 -29.5t-4.5 -51.5q0 -39 10 -56.5t28 -21t40 -3.5q35 0 51 7.5t21 26.5t5 48zM237 264q-84 -90 -116 -156l-2 -7q0 -4 5 -4q4 0 26 4t41 4q35 0 60.5 -8t41.5 -32.5t16 -86.5q0 -42 -9 -72.5t-36.5 -48.5
t-94.5 -18q-75 0 -107 29t-32 104q0 71 27.5 136t107.5 159q5 6 14 6h51q5 0 7 -2.5t0 -6.5z" />
    <glyph glyph-name="uni2087" unicode="&#x2087;" horiz-adv-x="340" 
d="M291 206q-15 -38 -56 -115t-55 -119q-17 -51 -17 -119q0 -8 -7 -8h-48q-9 0 -9 6v16q0 52 19 108.5t56.5 124t46 85.5t8.5 31q-1 3 -4 3h-176q-2 0 -4 2.5t-2 4.5v41q0 6 6 6h239q7 0 7 -6v-42q0 -7 -4 -19z" />
    <glyph glyph-name="uni2088" unicode="&#x2088;" horiz-adv-x="340" 
d="M102 74q-27 12 -45.5 38.5t-18.5 62.5q0 57 32.5 81t99.5 24t99 -24t32 -81q0 -26 -14 -54t-49 -44q-4 -2 -4 -5t4 -5q38 -20 56.5 -48t18.5 -69q0 -56 -31 -83.5t-112 -27.5q-82 0 -113 27t-31 83q0 41 18.5 69t56.5 46q5 1 5 5zM252 -46q0 19 -8.5 40.5t-29.5 36.5
t-45 15q-33 0 -57 -26.5t-24 -66.5q0 -37 19 -51.5t63 -14.5t63 15t19 52zM240 171q0 33 -15 47t-54 14q-41 0 -57 -13.5t-16 -47.5q0 -24 11 -44t28 -28.5t33 -8.5q15 0 32 8.5t27.5 28.5t10.5 44z" />
    <glyph glyph-name="uni2089" unicode="&#x2089;" horiz-adv-x="340" 
d="M92 147q0 -45 12 -67t65 -22q36 0 52.5 9t21 29.5t4.5 51.5q0 39 -10 56.5t-28.5 21t-39.5 3.5q-46 0 -61.5 -15t-15.5 -67zM102 -146q33 35 66.5 79t49.5 78l2 7q0 4 -5 4q-1 0 -24 -4.5t-43 -4.5q-35 0 -60.5 8t-41.5 33t-16 87q0 42 9 72.5t36.5 48.5t94.5 18
q75 0 107 -29t32 -104q0 -72 -27.5 -137t-107.5 -159q-5 -6 -14 -6h-51q-5 0 -7 2.5t0 6.5z" />
    <glyph glyph-name="glyph422" horiz-adv-x="500" 
d="M231 742h-27q-4 0 -6 3.5t1 6.5l131 142q10 10 19 10h58q11 0 11.5 -6.5t-3.5 -9.5l-152 -135q-3 -3 -9.5 -7t-22.5 -4z" />
    <glyph glyph-name="glyph423" horiz-adv-x="500" 
d="M250 788q52 0 71.5 16t19.5 62q0 10 10 10h30q10 0 10 -9q0 -73 -32 -101t-110 -28t-109.5 28t-31.5 101q0 9 10 9h30q11 0 11 -10q0 -46 19 -62t72 -16z" />
    <glyph glyph-name="glyph424" horiz-adv-x="500" 
d="M226 618h-20q-4 0 -6.5 2.5t-1.5 5.5l48 191q3 10 14 10h44q5 0 8 -3.5t2 -7.5l-63 -181q-2 -6 -6 -11.5t-19 -5.5z" />
    <glyph glyph-name="glyph425" horiz-adv-x="500" 
d="M94 892h22q5 0 15.5 -1t19.5 -12l87 -92l9 -2l11 2l89 92q3 3 9.5 8t23.5 5h23q4 0 7 -3t2 -6l-122 -144q-2 -3 -7 -6t-8 -3h-55q-3 0 -8 3t-7 6l-120 144q-1 3 2 6t7 3z" />
    <glyph glyph-name="glyph426" horiz-adv-x="500" 
d="M404 742h-22q-6 0 -16 0.5t-20 11.5l-87 92q-3 3 -9 3q-7 0 -10 -3l-89 -92q-3 -3 -9.5 -7.5t-23.5 -4.5h-24q-4 0 -7 2.5t-2 6.5l122 144q7 9 15 9h55q8 0 15 -9l121 -144q1 -4 -2 -6.5t-7 -2.5z" />
    <glyph glyph-name="glyph427" horiz-adv-x="500" 
d="M294 803h22q4 0 6 -2.5t1 -5.5l-74 -169q-4 -9 -13 -9h-49q-4 0 -6 3t0 6l91 162q2 4 6.5 9.5t15.5 5.5z" />
    <glyph glyph-name="glyph428" horiz-adv-x="500" 
d="M182 765h-56q-10 0 -10 10v59q0 10 10 10h56q10 0 10 -10v-59q0 -10 -10 -10zM374 765h-56q-10 0 -10 10v59q0 10 10 10h56q10 0 10 -10v-59q0 -10 -10 -10z" />
    <glyph glyph-name="glyph429" horiz-adv-x="500" 
d="M281 762h-61q-10 0 -10 10v63q0 10 10 10h61q10 0 10 -10v-63q0 -10 -10 -10z" />
    <glyph glyph-name="glyph430" horiz-adv-x="500" 
d="M302 742h-27q-11 0 -17.5 2t-14.5 9l-152 135q-4 3 -3.5 9.5t11.5 6.5h58q9 0 19 -10l131 -142q3 -3 1 -6.5t-6 -3.5z" />
    <glyph glyph-name="glyph431" horiz-adv-x="500" 
d="M139 742h-26q-4 0 -7 2.5t0 5.5l115 147q6 7 21 7h53q4 0 5.5 -4t-1.5 -9l-130 -136q-3 -3 -9.5 -8t-20.5 -5zM322 742h-26q-4 0 -7 2.5t0 5.5l115 147q7 7 22 7h53q4 0 5 -4t-2 -9l-130 -136q-3 -3 -9.5 -8t-20.5 -5z" />
    <glyph glyph-name="glyph432" horiz-adv-x="500" 
d="M372 763h-244q-10 0 -10 10v36q0 10 10 10h244q10 0 10 -10v-36q0 -10 -10 -10z" />
    <glyph glyph-name="glyph433" horiz-adv-x="500" 
d="M133 832q0 62 30 87.5t87 25.5q116 0 116 -102q0 -33 -11 -60.5t-39 -41t-66 -13.5q-61 0 -89 26.5t-28 77.5zM319 839q0 30 -12.5 48.5t-56.5 18.5q-40 0 -56 -13.5t-16 -53.5q0 -32 13 -52t59 -20q38 0 53.5 14.5t15.5 57.5z" />
    <glyph glyph-name="glyph434" horiz-adv-x="500" 
d="M261 820q38 -27 57 -27q33 0 39 53q0 5 6 5h35q6 0 6 -8q0 -26 -12.5 -52t-32.5 -37.5t-39 -11.5q-8 0 -26.5 3.5t-56.5 29.5q-36 25 -56 25q-34 0 -40 -50q0 -8 -6 -8h-35q-6 0 -6 9q0 39 23.5 69.5t61.5 30.5q11 0 28.5 -3.5t53.5 -27.5z" />
    <glyph glyph-name="c_t.dlig" horiz-adv-x="761" 
d="M283 -10q-116 0 -166 67.5t-50 206.5t52.5 210t166.5 71h4q9 0 9 7v8q0 63 12.5 97t49.5 54t107 20q55 0 89.5 -10.5t54 -32.5t19.5 -76v-71q0 -6 6 -6h94q10 0 10 -10v-36q0 -10 -10 -10h-94q-6 0 -6 -6v-369q0 -34 10 -46t41 -12h40q9 0 9 -9l-1 -28q0 -6 -6 -9
q-10 -4 -29.5 -6.5t-36.5 -2.5q-53 0 -75.5 26.5t-22.5 73.5v382q0 6 -6 6h-76q-10 0 -10 10v36q0 10 10 10h76q6 0 6 6v64q0 39 -19.5 56.5t-69.5 17.5q-35 0 -60 -7t-38 -27.5t-13 -75.5v-77q0 -2 -1.5 -4.5t-3.5 -2.5l-52 4q-91 0 -126.5 -50t-35.5 -176
q0 -119 35 -167.5t124 -48.5q40 0 84 12q7 2 8 -3l5 -44q1 -7 -3 -8q-45 -14 -111 -14z" />
    <glyph glyph-name="uniFB06" unicode="&#xfb06;" horiz-adv-x="710" 
d="M217 545h22q10 0 10 7v23q0 56 14 88t51 50t104 18q55 0 89 -10.5t54 -32.5t20 -76v-71q0 -6 6 -6h93q10 0 10 -10v-36q0 -10 -10 -10h-93q-6 0 -6 -6v-369q0 -34 10 -46t40 -12h40q10 0 10 -9l-1 -28q0 -2 -2.5 -5t-5.5 -4q-10 -4 -30 -6.5t-35 -2.5q-53 0 -75 26.5
t-22 73.5v382q0 6 -6 6h-77q-10 0 -10 10v36q0 10 10 10h77q6 0 6 6v64q0 39 -20 56.5t-70 17.5q-35 0 -59.5 -7t-37.5 -27.5t-13 -75.5v-77q0 -2 -1.5 -4.5t-3.5 -2.5q-54 4 -78 4q-52 0 -77.5 -15.5t-25.5 -53.5q0 -19 6.5 -36.5t28 -37t80.5 -60.5q74 -54 90.5 -87.5
t15.5 -71.5q0 -74 -40 -105.5t-130 -31.5q-27 0 -63 3t-58 8q-4 1 -5 6l4 47q0 5 7 4q55 -11 105 -11q64 0 88 15.5t24 63.5q0 27 -13 49.5t-91 79.5q-66 48 -91 78.5t-25 75.5q0 74 37.5 105t122.5 31z" />
    <glyph glyph-name="c_h.dlig" horiz-adv-x="896" 
d="M255 545q42 0 74 -8q4 -1 4 -7l-4 -44q0 -5 -6 -4q-32 8 -63 8q-44 0 -69.5 -20.5t-37.5 -66.5t-12 -139q0 -75 10.5 -124.5t43 -72t87.5 -22.5q76 0 132 17q8 4 8 13v650q0 10 10 10h51q10 0 10 -10v-182q0 -9 9 -9q73 11 121 11q66 0 106 -13.5t62 -49t22 -110.5v-362
q0 -10 -10 -10h-51q-10 0 -10 10v353q0 46 -9.5 72t-36 39.5t-86.5 13.5q-66 0 -107 -9q-10 -3 -10 -11v-434q0 -2 -1.5 -5.5t-14.5 -7.5q-44 -15 -100.5 -23t-103.5 -8q-76 0 -120 25t-64.5 81t-20.5 169q0 151 43 215.5t144 64.5z" />
    <glyph glyph-name="c_k.dlig" horiz-adv-x="821" 
d="M493 254v-220q0 -2 -1.5 -5.5t-14.5 -7.5q-44 -15 -100.5 -23t-103.5 -8q-76 0 -120 25t-64.5 81t-20.5 169q0 151 43 215.5t144 64.5q42 0 74 -8q4 -1 4 -7l-4 -44q0 -5 -6 -4q-32 8 -63 8q-44 0 -69.5 -20.5t-37.5 -66.5t-12 -139q0 -75 10.5 -124.5t43 -72t87.5 -22.5
q76 0 132 17q8 4 8 13v650q0 10 10 10h51q10 0 10 -10v-394q0 -9 19 -9q16 0 23 7q38 40 91 100t83 97q6 9 18 9h59q12 0 10 -8q-16 -19 -74 -82t-126 -135q-10 -10 -10 -16q0 -7 11 -18q31 -37 110.5 -137t101.5 -130q2 -9 -11 -9h-59q-11 0 -16 7q-36 49 -99 132t-90 116
q-6 8 -22 8q-19 0 -19 -9z" />
    <glyph glyph-name="s_c_h.dlig" horiz-adv-x="1233" 
d="M153 -10q-67 0 -112 9q-5 2 -5 7l4 47q0 2 2.5 3.5t4.5 0.5q49 -10 101 -10t74.5 15t22.5 55q0 28 -9 50t-69 78q-51 50 -71.5 76.5t-26.5 51.5t-6 50q0 64 37.5 93t111.5 29q58 0 105 -9q5 -2 5 -7l-4 -45q0 -2 -2.5 -3.5t-4.5 -0.5q-50 10 -93 10q-54 0 -71 -19
t-17 -49q0 -28 10 -51t67 -78q50 -49 70.5 -75t27 -51.5t6.5 -51.5q0 -66 -38 -95.5t-120 -29.5zM592 545q42 0 74 -8q4 -1 4 -7l-4 -44q0 -5 -6 -4q-32 8 -63 8q-44 0 -69.5 -20.5t-37.5 -66.5t-12 -139q0 -75 10.5 -124.5t43 -72t87.5 -22.5q76 0 132 17q8 4 8 13v650
q0 10 10 10h51q10 0 10 -10v-182q0 -9 9 -9q73 11 121 11q66 0 106 -13.5t62 -49t22 -110.5v-362q0 -10 -10 -10h-51q-10 0 -10 10v353q0 46 -9.5 72t-36 39.5t-86.5 13.5q-66 0 -107 -9q-10 -3 -10 -11v-434q0 -2 -1.5 -5.5t-14.5 -7.5q-44 -15 -100.5 -23t-103.5 -8
q-76 0 -120 25t-64.5 81t-20.5 169q0 151 43 215.5t144 64.5z" />
    <glyph glyph-name="zero.pnum" 
d="M141 340q0 -81 13.5 -159.5t36.5 -105.5q10 -12 26.5 -20t56.5 -8q25 0 46.5 4t38.5 24q23 27 36.5 106t13.5 159t-13.5 159.5t-36.5 106.5q-10 12 -26.5 20t-58.5 8q-24 0 -45.5 -4.5t-37.5 -23.5q-23 -27 -36.5 -106t-13.5 -160zM483 340q0 -90 -20 -182t-58 -128
q-17 -16 -44 -28t-86 -12q-36 0 -69 6.5t-62 33.5q-37 36 -57 128.5t-20 181.5t20 181t57 128q17 16 44.5 28.5t86.5 12.5q36 0 68.5 -7t61.5 -34q38 -36 58 -127.5t20 -181.5z" />
    <glyph glyph-name="one.pnum" horiz-adv-x="392" 
d="M37 652l130 26q9 2 20 2h60q10 0 10 -10v-660q0 -10 -10 -10h-51q-10 0 -10 10v603q-2 5 -6 5l-143 -28q-10 0 -10 10v42q0 8 10 10z" />
    <glyph glyph-name="two.pnum" horiz-adv-x="525" 
d="M57 10v56q0 20 4.5 49.5t21.5 61.5t53 68.5t118 91.5q80 54 105 91.5t25 90.5q0 54 -27.5 81.5t-107.5 27.5q-27 0 -70 -5t-70 -12q-9 0 -10 10l-5 39q0 7 9 10q28 8 73 14t78 6q111 0 157.5 -38.5t46.5 -129.5q0 -40 -9.5 -73t-38 -65.5t-107.5 -83.5q-90 -59 -133 -108
t-43 -120q0 -10 8 -10h322q10 0 10 -10v-42q0 -10 -10 -10h-385q-15 0 -15 10z" />
    <glyph glyph-name="three.pnum" horiz-adv-x="524" 
d="M220 399q-4 -4 -4 -8q0 -2 1.5 -4t3.5 -2h22q107 -2 158 -47.5t51 -137.5q0 -107 -53 -158.5t-173 -51.5q-38 0 -84.5 4.5t-74.5 11.5q-6 1 -6 9l6 42q2 8 9 8q26 -6 68 -10t69 -4q67 0 101 15t49 46.5t15 86.5q0 77 -43 105t-156 28h-48q-10 0 -10 10v36q0 8 11 18
q73 64 147.5 137t74.5 82q0 5 -6 5h-271q-9 0 -9 10v40q0 10 10 10h352q10 0 10 -7v-52q0 -7 -8 -16q-26 -30 -92 -94t-120 -112z" />
    <glyph glyph-name="four.pnum" 
d="M50 186v40q0 20 5 34q9 26 65 136t145 274q6 10 13 10h53q4 0 7 -3t2 -8q-127 -230 -175.5 -321.5t-48.5 -105.5q0 -8 7 -8h207q6 0 6 6v225q0 10 10 10h49q10 0 10 -10v-225q0 -6 6 -6h93q10 0 10 -10v-38q0 -10 -10 -10h-93q-6 0 -6 -6v-160q0 -10 -10 -10h-49
q-10 0 -10 10v160q0 6 -6 6h-270q-10 0 -10 10z" />
    <glyph glyph-name="five.pnum" horiz-adv-x="522" 
d="M420 619h-241q-9 0 -10 -8l-9 -195q0 -8 6 -8q76 0 128.5 -9t86.5 -30.5t50.5 -59t16.5 -94.5q0 -81 -26 -129.5t-78.5 -72t-144.5 -23.5q-74 0 -131 14q-5 1 -5 9l5 46q0 2 2.5 4.5t5.5 1.5q22 -6 57 -10t61 -4q77 0 113.5 16t51.5 50t15 93q0 45 -13 75.5t-55.5 47
t-163.5 16.5h-34q-14 0 -14 18l12 300q0 3 1 8t10 5h303q10 0 10 -10v-41q0 -10 -10 -10z" />
    <glyph glyph-name="six.pnum" 
d="M412 194q0 52 -8 87t-33.5 53.5t-95.5 18.5q-55 0 -83.5 -10.5t-41.5 -41t-13 -107.5q0 -48 8.5 -80.5t34 -49.5t95.5 -17q54 0 82 8.5t41.5 37t13.5 101.5zM178 398q0 -7 8 -7q7 1 26.5 5.5t38.5 7t43 2.5q70 0 110.5 -17t60 -57t19.5 -123q0 -66 -13 -114t-54 -76.5
t-144 -28.5q-86 0 -129 22.5t-61.5 67t-18.5 118.5q0 123 53.5 229.5t166.5 238.5q11 14 24 14h53q7 0 10 -3.5t0 -9.5q-51 -54 -108 -130.5t-82 -127.5q-3 -4 -3 -11z" />
    <glyph glyph-name="seven.pnum" horiz-adv-x="476" 
d="M417 589q-24 -62 -89.5 -185.5t-88.5 -193.5q-12 -36 -20.5 -80.5t-8.5 -117.5q0 -3 -1 -7.5t-10 -4.5h-44q-15 0 -15 10v23q0 65 16.5 127.5t37 111t38.5 85t68 129.5t50 126q0 6 -6 6h-288q-10 0 -10 10v42q0 10 10 10h357q10 0 10 -10v-49q0 -15 -6 -32z" />
    <glyph glyph-name="eight.pnum" 
d="M177 364q-30 14 -54.5 41t-34.5 59t-10 60q0 90 47.5 128t149.5 38t149.5 -38t47.5 -128q0 -27 -10 -58t-34 -57t-55 -40q-5 -2 -5 -9q0 -5 6 -8q61 -32 89 -75.5t28 -111.5q0 -63 -22.5 -101t-68 -56t-125.5 -18q-123 0 -169.5 42.5t-46.5 129.5q0 69 28.5 112.5
t88.5 72.5q6 2 6 8q0 7 -5 9zM419 163q0 78 -42 122.5t-102 44.5q-29 0 -55 -11t-46 -32t-31.5 -53t-11.5 -72q0 -34 9 -59.5t37 -41t99 -15.5q51 0 81 9t46 33t16 75zM399 524q0 27 -7 54t-34 41.5t-80 14.5q-66 0 -96.5 -20.5t-30.5 -89.5q0 -42 17 -75.5t44 -50.5t63 -17
q29 0 57.5 14t47.5 50t19 79z" />
    <glyph glyph-name="nine.pnum" 
d="M136 485q0 -52 8 -87t33 -53.5t95 -18.5q66 0 93 14.5t36.5 47t9.5 97.5q0 48 -8.5 80.5t-34 48.5t-96.5 16q-54 0 -81.5 -8.5t-41 -36t-13.5 -100.5zM370 281q0 7 -8 7q-7 -1 -32 -6t-42.5 -7t-34.5 -2q-83 0 -122 23t-53.5 64.5t-14.5 110.5q0 66 13 114t54 76.5
t144 28.5q85 0 128.5 -22.5t62 -67t18.5 -118.5q0 -124 -53 -230t-166 -239q-11 -13 -24 -13h-53q-16 0 -10 12q50 55 108 133t82 126q3 5 3 10z" />
    <glyph glyph-name="zero.oldstyle" 
d="M136 280q0 -49 7 -96t18.5 -74.5t23.5 -39.5q10 -10 28.5 -17t60.5 -7q36 0 57.5 5.5t34.5 18.5q23 24 36 83.5t13 126.5q0 66 -13 126t-36 83q-10 10 -29 17.5t-63 7.5q-65 0 -89 -25q-12 -11 -23.5 -39t-18.5 -75t-7 -95zM488 280q0 -53 -10.5 -109.5t-28.5 -93
t-38 -53.5q-42 -34 -136 -34q-36 0 -71.5 6t-64.5 28q-20 17 -38 53.5t-28 92.5t-10 110q0 75 19.5 149.5t56.5 105.5q17 14 46.5 24.5t89.5 10.5q49 0 81.5 -8.5t54.5 -26.5q20 -17 38 -53.5t28.5 -92.5t10.5 -109z" />
    <glyph glyph-name="one.oldstyle" 
d="M108 537l130 25l33 3h47q10 0 10 -10v-487q0 -6 6 -6h122q10 0 10 -10v-42q0 -10 -10 -10h-344q-10 0 -10 10v42q0 10 10 10h139q6 0 6 6v430q-2 5 -6 5l-143 -28q-10 0 -10 10v42q0 7 10 10z" />
    <glyph glyph-name="two.oldstyle" 
d="M146 70q0 -2 0.5 -5t7.5 -3h326q10 0 10 -10v-42q0 -10 -10 -10h-394q-15 0 -15 10v56q0 54 50.5 103.5t148.5 100.5q48 25 76 47.5t38.5 47.5t10.5 49q0 33 -11 53t-39.5 30.5t-87.5 10.5q-31 0 -77 -5t-71 -12q-10 0 -10 10l-4 40q0 8 10 10q21 6 68 12.5t96 6.5
q111 0 155.5 -39.5t44.5 -115.5q0 -32 -11 -62.5t-43.5 -59t-86.5 -58.5q-93 -51 -137.5 -87t-44.5 -78z" />
    <glyph glyph-name="three.oldstyle" 
d="M233 279q-4 -4 -4 -8q0 -2 1.5 -4t3.5 -2h22q107 -2 158 -47.5t51 -137.5q0 -107 -53 -158.5t-173 -51.5q-38 0 -84.5 4.5t-74.5 11.5q-6 1 -6 9l6 42q2 8 9 8q26 -6 68 -10t69 -4q67 0 101 15t49 46.5t15 86.5q0 77 -43 105t-156 28h-48q-10 0 -10 10v36q0 8 11 18
q73 64 147.5 137t74.5 82q0 5 -6 5h-271q-9 0 -9 10v40q0 10 10 10h352q10 0 10 -7v-52q0 -7 -8 -16q-26 -30 -92 -94t-120 -112z" />
    <glyph glyph-name="four.oldstyle" 
d="M50 66v40q0 20 5 34q9 26 65 136t145 274q6 10 13 10h53q4 0 7 -3t2 -8q-127 -230 -175.5 -321.5t-48.5 -105.5q0 -8 7 -8h207q6 0 6 6v225q0 10 10 10h49q10 0 10 -10v-225q0 -6 6 -6h93q10 0 10 -10v-38q0 -10 -10 -10h-93q-6 0 -6 -6v-160q0 -10 -10 -10h-49
q-10 0 -10 10v160q0 6 -6 6h-270q-10 0 -10 10z" />
    <glyph glyph-name="five.oldstyle" 
d="M430 499h-241q-9 0 -10 -8l-9 -195q0 -8 6 -8q76 0 128.5 -9t86.5 -30.5t50.5 -59t16.5 -94.5q0 -81 -26 -129.5t-78.5 -72t-144.5 -23.5q-74 0 -131 14q-5 1 -5 9l5 46q0 2 2.5 4.5t5.5 1.5q22 -6 57 -10t61 -4q77 0 113.5 16t51.5 50t15 93q0 45 -13 75.5t-55.5 47
t-163.5 16.5h-34q-14 0 -14 18l12 300q0 3 1 8t10 5h303q10 0 10 -10v-41q0 -10 -10 -10z" />
    <glyph glyph-name="six.oldstyle" 
d="M412 194q0 52 -8 87t-33.5 53.5t-95.5 18.5q-55 0 -83.5 -10.5t-41.5 -41t-13 -107.5q0 -48 8.5 -80.5t34 -49.5t95.5 -17q54 0 82 8.5t41.5 37t13.5 101.5zM178 398q0 -7 8 -7q7 1 26.5 5.5t38.5 7t43 2.5q70 0 110.5 -17t60 -57t19.5 -123q0 -66 -13 -114t-54 -76.5
t-144 -28.5q-86 0 -129 22.5t-61.5 67t-18.5 118.5q0 123 53.5 229.5t166.5 238.5q11 14 24 14h53q7 0 10 -3.5t0 -9.5q-51 -54 -108 -130.5t-82 -127.5q-3 -4 -3 -11z" />
    <glyph glyph-name="seven.oldstyle" 
d="M454 469q-24 -62 -89.5 -185.5t-88.5 -193.5q-12 -36 -20.5 -80.5t-8.5 -117.5q0 -3 -1 -7.5t-10 -4.5h-44q-15 0 -15 10v23q0 65 16.5 127.5t37 111t38.5 85t68 129.5t50 126q0 6 -6 6h-288q-10 0 -10 10v42q0 10 10 10h357q10 0 10 -10v-49q0 -15 -6 -32z" />
    <glyph glyph-name="eight.oldstyle" 
d="M177 364q-30 14 -54.5 41t-34.5 59t-10 60q0 90 47.5 128t149.5 38t149.5 -38t47.5 -128q0 -27 -10 -58t-34 -57t-55 -40q-5 -2 -5 -9q0 -5 6 -8q61 -32 89 -75.5t28 -111.5q0 -63 -22.5 -101t-68 -56t-125.5 -18q-123 0 -169.5 42.5t-46.5 129.5q0 69 28.5 112.5
t88.5 72.5q6 2 6 8q0 7 -5 9zM419 163q0 78 -42 122.5t-102 44.5q-29 0 -55 -11t-46 -32t-31.5 -53t-11.5 -72q0 -34 9 -59.5t37 -41t99 -15.5q51 0 81 9t46 33t16 75zM399 524q0 27 -7 54t-34 41.5t-80 14.5q-66 0 -96.5 -20.5t-30.5 -89.5q0 -42 17 -75.5t44 -50.5t63 -17
q29 0 57.5 14t47.5 50t19 79z" />
    <glyph glyph-name="nine.oldstyle" 
d="M136 365q0 -52 8 -87t33 -53.5t95 -18.5q66 0 93 14.5t36.5 47t9.5 97.5q0 48 -8.5 80.5t-34 48.5t-96.5 16q-54 0 -81.5 -8.5t-41 -36t-13.5 -100.5zM370 161q0 7 -8 7q-7 -1 -32 -6t-42.5 -7t-34.5 -2q-83 0 -122 23t-53.5 64.5t-14.5 110.5q0 66 13 114t54 76.5
t144 28.5q85 0 128.5 -22.5t62 -67t18.5 -118.5q0 -124 -53 -230t-166 -239q-11 -13 -24 -13h-53q-16 0 -10 12q50 55 108 133t82 126q3 5 3 10z" />
    <glyph glyph-name="zero.oldstyle.pnum" horiz-adv-x="593" 
d="M137 280q0 -30 4.5 -71.5t17.5 -81t30 -55.5q10 -10 36 -18t71 -8q81 0 108 26q17 16 30 55.5t17.5 81t4.5 71.5q0 64 -15 125t-37 83q-25 26 -108 26q-82 0 -107 -26q-23 -22 -37.5 -83t-14.5 -125zM529 280q0 -75 -20.5 -149t-58.5 -105q-45 -36 -154 -36
q-108 0 -153 36q-38 31 -58.5 105t-20.5 149q0 44 7.5 91t25 92.5t46.5 69.5q22 18 63 27.5t90 9.5q50 0 91 -9.5t63 -27.5q19 -16 36 -48t30 -86.5t13 -118.5z" />
    <glyph glyph-name="one.oldstyle.pnum" horiz-adv-x="383" 
d="M39 532l130 25q14 3 33 3h47q10 0 10 -10v-540q0 -10 -10 -10h-51q-10 0 -10 10v483q-2 5 -6 5l-143 -28q-10 0 -10 10v42q0 7 10 10z" />
    <glyph glyph-name="two.oldstyle.pnum" horiz-adv-x="521" 
d="M127 70q0 -2 0.5 -5t7.5 -3h326q10 0 10 -10v-42q0 -10 -10 -10h-394q-15 0 -15 10v56q0 54 50.5 103.5t148.5 100.5q48 25 76 47.5t38.5 47.5t10.5 49q0 33 -11 53t-39.5 30.5t-87.5 10.5q-31 0 -77 -5t-71 -12q-10 0 -10 10l-4 40q0 8 10 10q21 6 68 12.5t96 6.5
q111 0 155.5 -39.5t44.5 -115.5q0 -32 -11 -62.5t-43.5 -59t-86.5 -58.5q-93 -51 -137.5 -87t-44.5 -78z" />
    <glyph glyph-name="three.oldstyle.pnum" horiz-adv-x="516" 
d="M210 279q-4 -4 -4 -8q0 -2 1.5 -4t3.5 -2h22q107 -2 158 -47.5t51 -137.5q0 -107 -53 -158.5t-173 -51.5q-38 0 -84.5 4.5t-74.5 11.5q-6 1 -6 9l6 42q2 8 9 8q26 -6 68 -10t69 -4q67 0 101 15t49 46.5t15 86.5q0 77 -43 105t-156 28h-48q-10 0 -10 10v36q0 8 11 18
q73 64 147.5 137t74.5 82q0 5 -6 5h-271q-9 0 -9 10v40q0 10 10 10h352q10 0 10 -7v-52q0 -7 -8 -16q-26 -30 -92 -94t-120 -112z" />
    <glyph glyph-name="four.oldstyle.pnum" 
d="M50 66v40q0 20 5 34q9 26 65 136t145 274q6 10 13 10h53q4 0 7 -3t2 -8q-127 -230 -175.5 -321.5t-48.5 -105.5q0 -8 7 -8h207q6 0 6 6v225q0 10 10 10h49q10 0 10 -10v-225q0 -6 6 -6h93q10 0 10 -10v-38q0 -10 -10 -10h-93q-6 0 -6 -6v-160q0 -10 -10 -10h-49
q-10 0 -10 10v160q0 6 -6 6h-270q-10 0 -10 10z" />
    <glyph glyph-name="five.oldstyle.pnum" horiz-adv-x="519" 
d="M415 499h-241q-9 0 -10 -8l-9 -195q0 -8 6 -8q76 0 128.5 -9t86.5 -30.5t50.5 -59t16.5 -94.5q0 -81 -26 -129.5t-78.5 -72t-144.5 -23.5q-74 0 -131 14q-5 1 -5 9l5 46q0 2 2.5 4.5t5.5 1.5q22 -6 57 -10t61 -4q77 0 113.5 16t51.5 50t15 93q0 45 -13 75.5t-55.5 47
t-163.5 16.5h-34q-14 0 -14 18l12 300q0 3 1 8t10 5h303q10 0 10 -10v-41q0 -10 -10 -10z" />
    <glyph glyph-name="six.oldstyle.pnum" 
d="M412 194q0 52 -8 87t-33.5 53.5t-95.5 18.5q-55 0 -83.5 -10.5t-41.5 -41t-13 -107.5q0 -48 8.5 -80.5t34 -49.5t95.5 -17q54 0 82 8.5t41.5 37t13.5 101.5zM178 398q0 -7 8 -7q7 1 26.5 5.5t38.5 7t43 2.5q70 0 110.5 -17t60 -57t19.5 -123q0 -66 -13 -114t-54 -76.5
t-144 -28.5q-86 0 -129 22.5t-61.5 67t-18.5 118.5q0 123 53.5 229.5t166.5 238.5q11 14 24 14h53q7 0 10 -3.5t0 -9.5q-51 -54 -108 -130.5t-82 -127.5q-3 -4 -3 -11z" />
    <glyph glyph-name="seven.oldstyle.pnum" horiz-adv-x="470" 
d="M412 469q-24 -62 -89.5 -185.5t-88.5 -193.5q-12 -36 -20.5 -80.5t-8.5 -117.5q0 -3 -1 -7.5t-10 -4.5h-44q-15 0 -15 10v23q0 65 16.5 127.5t37 111t38.5 85t68 129.5t50 126q0 6 -6 6h-288q-10 0 -10 10v42q0 10 10 10h357q10 0 10 -10v-49q0 -15 -6 -32z" />
    <glyph glyph-name="eight.oldstyle.pnum" 
d="M177 364q-30 14 -54.5 41t-34.5 59t-10 60q0 90 47.5 128t149.5 38t149.5 -38t47.5 -128q0 -27 -10 -58t-34 -57t-55 -40q-5 -2 -5 -9q0 -5 6 -8q61 -32 89 -75.5t28 -111.5q0 -63 -22.5 -101t-68 -56t-125.5 -18q-123 0 -169.5 42.5t-46.5 129.5q0 69 28.5 112.5
t88.5 72.5q6 2 6 8q0 7 -5 9zM419 163q0 78 -42 122.5t-102 44.5q-29 0 -55 -11t-46 -32t-31.5 -53t-11.5 -72q0 -34 9 -59.5t37 -41t99 -15.5q51 0 81 9t46 33t16 75zM399 524q0 27 -7 54t-34 41.5t-80 14.5q-66 0 -96.5 -20.5t-30.5 -89.5q0 -42 17 -75.5t44 -50.5t63 -17
q29 0 57.5 14t47.5 50t19 79z" />
    <glyph glyph-name="nine.oldstyle.pnum" 
d="M136 365q0 -52 8 -87t33 -53.5t95 -18.5q66 0 93 14.5t36.5 47t9.5 97.5q0 48 -8.5 80.5t-34 48.5t-96.5 16q-54 0 -81.5 -8.5t-41 -36t-13.5 -100.5zM370 161q0 7 -8 7q-7 -1 -32 -6t-42.5 -7t-34.5 -2q-83 0 -122 23t-53.5 64.5t-14.5 110.5q0 66 13 114t54 76.5
t144 28.5q85 0 128.5 -22.5t62 -67t18.5 -118.5q0 -124 -53 -230t-166 -239q-11 -13 -24 -13h-53q-16 0 -10 12q50 55 108 133t82 126q3 5 3 10z" />
    <glyph glyph-name="arrowleft" unicode="&#x2190;" horiz-adv-x="570" 
d="M39 300q0 10 12 23l179 179q8 8 16 8h55q4 0 5.5 -5t-1.5 -8l-157 -154q-5 -5 -5 -9q0 -7 11 -7l351 5q11 0 11 -13v-38q0 -13 -11 -13l-351 5q-11 0 -11 -7q0 -4 5 -9l157 -154q3 -3 1.5 -8t-5.5 -5h-55q-8 0 -16 7l-179 180q-12 12 -12 23z" />
    <glyph glyph-name="arrowup" unicode="&#x2191;" horiz-adv-x="570" 
d="M285 546q9 0 23 -13l179 -178q8 -8 8 -16v-55q0 -4 -5 -5.5t-8 1.5l-154 157q-5 5 -9 5q-7 0 -7 -11l5 -351q0 -11 -13 -11h-38q-13 0 -13 11l5 351q0 11 -7 11q-4 0 -9 -5l-154 -157q-3 -3 -8 -1.5t-5 5.5v55q0 8 7 16l180 178q13 13 23 13z" />
    <glyph glyph-name="arrowright" unicode="&#x2192;" horiz-adv-x="570" 
d="M531 300q0 -10 -13 -23l-178 -180q-8 -7 -16 -7h-55q-4 0 -5.5 5t1.5 8l157 154q5 5 5 9q0 7 -11 7l-351 -5q-11 0 -11 13v38q0 13 11 13l351 -5q11 0 11 7q0 4 -5 9l-157 154q-3 3 -1.5 8t5.5 5h55q8 0 16 -8l178 -179q13 -13 13 -23z" />
    <glyph glyph-name="arrowdown" unicode="&#x2193;" horiz-adv-x="570" 
d="M285 54q-10 0 -23 13l-180 178q-7 8 -7 16v55q0 4 5 5.5t8 -1.5l154 -157q5 -5 9 -5q7 0 7 11l-5 351q0 11 13 11h38q13 0 13 -11l-5 -351q0 -11 7 -11q4 0 9 5l154 157q3 3 8 1.5t5 -5.5v-55q0 -8 -8 -16l-179 -178q-13 -13 -23 -13z" />
    <glyph glyph-name="arrowboth" unicode="&#x2194;" horiz-adv-x="891" 
d="M852 300q0 -11 -12 -23l-179 -180q-8 -7 -16 -7h-55q-4 0 -5.5 5t1.5 8l157 154q5 5 5 9q0 7 -11 7h-583q-11 0 -11 -7q0 -4 5 -9l157 -154q3 -3 1.5 -8t-5.5 -5h-55q-8 0 -16 7l-179 180q-12 12 -12 23q0 10 12 23l179 179q8 8 16 8h55q4 0 5.5 -5t-1.5 -8l-157 -154
q-5 -5 -5 -9q0 -7 11 -7h583q11 0 11 7q0 4 -5 9l-157 154q-3 3 -1.5 8t5.5 5h55q8 0 16 -8l179 -179q12 -12 12 -23z" />
    <glyph glyph-name="arrowupdn" unicode="&#x2195;" horiz-adv-x="570" 
d="M285 -107q-11 0 -23 12l-180 179q-7 8 -7 16v55q0 4 5 5.5t8 -1.5l154 -157q5 -5 9 -5q7 0 7 11v583q0 11 -7 11q-4 0 -9 -5l-154 -157q-3 -3 -8 -1.5t-5 5.5v55q0 8 7 16l180 179q12 12 23 12q10 0 23 -12l179 -179q8 -8 8 -16v-55q0 -4 -5 -5.5t-8 1.5l-154 157
q-5 5 -9 5q-7 0 -7 -11v-583q0 -11 7 -11q4 0 9 5l154 157q3 3 8 1.5t5 -5.5v-55q0 -8 -8 -16l-179 -179q-12 -12 -23 -12z" />
    <glyph glyph-name="uni2196" unicode="&#x2196;" horiz-adv-x="570" 
d="M113 473q7 7 25 8h253q11 0 17 -6l39 -39q3 -2 1 -7t-7 -5l-220 3q-7 0 -10 -3q-5 -5 3 -13l251 -245q8 -6 -1 -17l-27 -26q-9 -9 -17 -2l-245 252q-8 8 -12 3q-3 -2 -3 -10l2 -220q0 -5 -4.5 -7t-7.5 1l-39 39q-5 4 -5 16v253q0 19 7 25z" />
    <glyph glyph-name="uni2197" unicode="&#x2197;" horiz-adv-x="570" 
d="M456 473q7 -7 7 -25v-253q0 -12 -5 -17l-39 -39q-3 -3 -7.5 -1t-4.5 7l2 220q0 8 -3 10q-4 5 -12 -3l-245 -251q-6 -8 -17 1l-27 27q-9 11 -1 17l251 245q8 8 3 12q-2 3 -10 3l-220 -2q-5 0 -7 4.5t1 7.5l39 39q5 5 17 5h253q18 0 25 -7z" />
    <glyph glyph-name="uni2198" unicode="&#x2198;" horiz-adv-x="570" 
d="M456 126q-7 -7 -25 -7h-253q-12 0 -17 5l-39 39q-3 3 -1 7.5t7 4.5l220 -2q8 0 10 3q5 4 -3 12l-251 245q-8 6 1 17l27 27q11 9 17 1l245 -251q8 -8 12 -3q3 2 3 10l-2 220q0 5 4.5 7t7.5 -1l39 -39q5 -5 5 -17v-253q0 -18 -7 -25z" />
    <glyph glyph-name="uni2199" unicode="&#x2199;" horiz-adv-x="570" 
d="M113 126q-7 7 -7 25v253q0 12 5 17l39 39q3 3 7.5 1t4.5 -7l-2 -220q0 -8 3 -10q4 -5 12 3l245 251q6 8 17 -1l27 -27q9 -11 1 -17l-251 -245q-8 -8 -3 -12q2 -3 10 -3l220 2q5 0 7 -4.5t-1 -7.5l-39 -39q-5 -5 -17 -5h-253q-18 0 -25 7z" />
    <glyph glyph-name="glyph480" horiz-adv-x="500" 
 />
    <glyph glyph-name="glyph480" horiz-adv-x="500" 
 />
    <glyph glyph-name="uni0406" unicode="&#x406;" horiz-adv-x="260" 
d="M156 0h-53q-10 0 -10 10v660q0 10 10 10h53q10 0 10 -10v-660q0 -10 -10 -10z" />
    <glyph glyph-name="uni0456" unicode="&#x456;" horiz-adv-x="264" 
d="M157 0h-51q-10 0 -10 10v515q0 10 10 10h51q10 0 10 -10v-515q0 -10 -10 -10zM163 649h-62q-10 0 -10 10v65q0 10 10 10h62q10 0 10 -10v-65q0 -10 -10 -10z" />
    <glyph glyph-name="uni0408" unicode="&#x408;" horiz-adv-x="312" 
d="M149 170v500q0 10 10 10h53q10 0 10 -10v-503q0 -63 -11 -100.5t-39 -57t-89 -19.5q-14 0 -34 2.5t-28 4.5q-7 3 -6 13l4 39q2 8 12 6q20 -5 45 -5q51 0 62 26t11 94z" />
    <glyph glyph-name="uni0458" unicode="&#x458;" horiz-adv-x="264" 
d="M164 649h-62q-10 0 -10 10v65q0 10 10 10h62q10 0 10 -10v-65q0 -10 -10 -10zM97 -9v534q0 10 10 10h51q10 0 10 -10v-570q-1 -41 -10.5 -74t-38.5 -49t-84 -16q-43 0 -69 8q-7 2 -7 7l8 42q0 1 2.5 3t6.5 1q28 -6 48 -6q22 0 39.5 5t25.5 29.5t8 85.5z" />
    <glyph glyph-name="uni0410" unicode="&#x410;" horiz-adv-x="532" 
d="M19 0q-4 0 -6 3t-1 7q26 97 94 331t98 329q3 10 12 10h109q9 0 12 -10q30 -102 97 -345t85 -315q1 -4 -1 -7t-6 -3h-61q-10 0 -12 10q-30 124 -45 174q-1 7 -8 7h-242q-8 0 -10 -7q0 -2 -2.5 -9t-19.5 -69t-25 -96q-4 -10 -13 -10h-55zM161 249h209q4 0 6.5 2.5t1.5 5.5
q-46 187 -92 354q-1 2 -2.5 4.5t-15.5 2.5q-4 0 -9.5 -0.5t-7.5 -6.5q-2 -7 -8.5 -28.5t-36 -127t-53.5 -198.5q-2 -8 8 -8z" />
    <glyph glyph-name="uni0411" unicode="&#x411;" horiz-adv-x="555" 
d="M103 0q-10 0 -10 10v660q0 10 10 10h337q10 0 10 -10v-42q0 -10 -10 -10h-268q-6 0 -6 -6v-220q0 -7 9 -7h116q101 0 152.5 -44.5t51.5 -147.5q0 -102 -51 -147.5t-148 -45.5h-193zM173 62h112q44 0 72.5 10.5t45.5 37.5t17 82q0 68 -29 101t-108 33h-109q-8 0 -8 -6
v-252q0 -6 7 -6z" />
    <glyph glyph-name="uni0412" unicode="&#x412;" horiz-adv-x="565" 
d="M103 680h180q100 0 149.5 -39.5t49.5 -127.5q0 -49 -18.5 -84.5t-66.5 -63.5q-3 -2 -7.5 -4.5t-4.5 -7.5q0 -6 9 -9q102 -42 102 -163q0 -58 -23.5 -98t-66.5 -61.5t-101 -21.5h-202q-10 0 -10 10v660q0 10 10 10zM175 377h68q91 0 128 32t37 100q0 32 -9.5 56t-38 40
t-93.5 16h-93q-4 0 -6 -2.5t-2 -4.5v-229q0 -8 9 -8zM174 59h94q90 0 121.5 31.5t31.5 97.5t-38 99t-123 33h-85q-9 0 -9 -9v-244q0 -8 8 -8z" />
    <glyph glyph-name="uni0413" unicode="&#x413;" horiz-adv-x="425" 
d="M103 0q-10 0 -10 10v660q0 10 10 10h296q10 0 10 -10v-42q0 -10 -10 -10h-227q-6 0 -6 -6v-602q0 -10 -10 -10h-53z" />
    <glyph glyph-name="uni0414" unicode="&#x414;" horiz-adv-x="644" 
d="M20 -174q-10 0 -10 10v216q0 10 10 10h49q11 0 16 7q49 67 67.5 204.5t18.5 352.5v44q0 10 10 10h356q10 0 10 -10v-602q0 -6 6 -6h63q10 0 10 -10v-216q0 -10 -10 -10h-50q-10 0 -10 10v157q0 7 -7 7h-463q-6 0 -6 -7v-157q0 -10 -10 -10h-50zM167 62h300q7 0 7 6v544
q0 6 -6 6h-220q-6 0 -6 -6v-27q0 -194 -18.5 -323.5t-60.5 -192.5q-3 -7 4 -7z" />
    <glyph glyph-name="uni0415" unicode="&#x415;" horiz-adv-x="478" 
d="M103 0q-10 0 -10 10v660q0 10 10 10h303q10 0 10 -10v-42q0 -10 -10 -10h-234q-6 0 -6 -6v-225q0 -6 6 -6h221q10 0 10 -10v-38q0 -10 -10 -10h-221q-6 0 -6 -6v-249q0 -6 6 -6h252q10 0 10 -10v-42q0 -10 -10 -10h-321z" />
    <glyph glyph-name="uni0416" unicode="&#x416;" horiz-adv-x="758" 
d="M25 0q-5 0 -8.5 3t-0.5 7q153 236 216 323q11 17 11 24q0 10 -11 24q-15 21 -201 289q-6 10 7 10h61q8 0 15 -10q35 -55 95.5 -145t93.5 -134q6 -9 24 -9q15 0 15 8v280q0 10 10 10h53q10 0 10 -10v-280q0 -8 15 -8q17 0 25 9q3 5 14.5 20.5t67.5 97t106 161.5
q8 10 15 10h62q13 0 7 -10q-174 -252 -202 -289q-11 -16 -11 -24q0 -2 1 -5t11 -19q21 -30 60.5 -89t93.5 -141t62 -93q3 -4 -0.5 -7t-8.5 -3h-61q-11 0 -16 9q-36 58 -97 152t-105 155q-7 10 -24 10q-15 0 -15 -7v-309q0 -10 -10 -10h-53q-10 0 -10 10v309q0 7 -15 7
q-4 0 -11 -1t-13 -9q-97 -137 -202 -307q-4 -9 -15 -9h-61z" />
    <glyph glyph-name="uni0417" unicode="&#x417;" horiz-adv-x="477" 
d="M193 -10q-35 0 -79.5 4t-74.5 12q-6 2 -6 7l4 49q0 2 2.5 4.5t5.5 1.5q62 -16 134 -16q32 0 61 6.5t49.5 22.5t31.5 43t11 70q0 63 -38.5 96t-107.5 33h-61q-9 0 -9 10v38q0 10 9 10h55q46 0 77 16.5t46.5 47t15.5 67.5q0 63 -34 90t-99 27q-29 0 -67 -4.5t-63 -10.5
q-3 -1 -5 1.5t-2 4.5l-4 47q0 6 6 7q19 6 58 11t90 5q65 0 108 -20t65.5 -57.5t22.5 -93.5q0 -53 -23 -91t-62 -58q-11 -5 -11 -12q0 -4 9 -9q46 -19 72.5 -58.5t26.5 -100.5q0 -66 -25 -109.5t-72 -67t-117 -23.5z" />
    <glyph glyph-name="uni0418" unicode="&#x418;" horiz-adv-x="636" 
d="M103 0q-10 0 -10 10v660q0 10 10 10h53q10 0 10 -10v-580q0 -8 5.5 -7.5t7.5 7.5l243 578q5 12 15 12h95q10 0 10 -10v-660q0 -10 -10 -10h-53q-10 0 -10 10v576q0 5 -2 9t-6.5 2t-7.5 -10l-240 -573q-6 -14 -16 -14h-94z" />
    </font>
</defs>
</svg>
