<?xml version="1.0" standalone="no"?>
<!DOCTYPE svg PUBLIC "-//W3C//DTD SVG 1.1//EN" "http://www.w3.org/Graphics/SVG/1.1/DTD/svg11.dtd" >
<svg xmlns="http://www.w3.org/2000/svg" xmlns:xlink="http://www.w3.org/1999/xlink" version="1.1">
<metadata>
Created by FontForge 20201107 at Tue Apr 19 14:27:23 2016
 By Jimmy Wärting
Copyright (c) 2011-2014 Monotype Imaging Inc. All rights reserved.
</metadata>
<defs>
<font id="AkkoW05-Medium" horiz-adv-x="567" >
  <font-face 
    font-family="AkkoW05-Medium"
    font-weight="500"
    font-stretch="normal"
    units-per-em="1000"
    panose-1="2 11 6 3 6 3 3 2 3 3"
    ascent="800"
    descent="-200"
    x-height="535"
    cap-height="680"
    bbox="-218.692 -241 1204 1082"
    underline-thickness="50"
    underline-position="-125"
    unicode-range="U+000D-FB06"
  />
<missing-glyph horiz-adv-x="485" 
d="M210 111v63h53v-63h-53zM211 222v16q0 25 2.5 43t9 32.5t17.5 27.5t28 28q30 30 38 46.5t8 33.5q0 34 -21.5 57t-50.5 23t-50.5 -20.5t-26.5 -69.5l-48 8q7 69 42 99.5t86 30.5q52 0 85 -33.5t33 -90.5q0 -31 -12 -55.5t-48 -57.5q-17 -15 -26 -25.5t-13.5 -21t-5.5 -23
t-1 -31.5v-17h-46zM438 47v585h-391v-585h391zM485 680v-680h-485v680h485z" />
    <glyph glyph-name="IJ" unicode="IJ" horiz-adv-x="609" 
d="M88 0q-10 0 -10 10v660q0 10 10 10h113q10 0 10 -10v-660q0 -10 -10 -10h-113zM294 -1q-6 2 -6 13l4 82q1 9 10 9q6 -2 16.5 -2.5t18.5 -0.5q20 0 32 3.5t18.5 13.5t8.5 27.5t2 44.5v481q0 10 10 10h113q10 0 10 -10v-500q0 -47 -6 -81t-23.5 -56t-49 -32t-81.5 -10
q-22 0 -44 3t-33 5z" />
    <glyph glyph-name="ij" unicode="ij" horiz-adv-x="544" 
d="M85 0q-10 0 -10 10v515q0 10 10 10h111q10 0 10 -10v-515q0 -10 -10 -10h-111zM82 624q-10 0 -10 10v99q0 10 10 10h117q10 0 10 -10v-99q0 -10 -10 -10h-117zM329 525q0 10 10 10h112q10 0 10 -10v-524q0 -53 -5.5 -89t-22.5 -58t-49 -31t-85 -9q-23 0 -45.5 2.5
t-30.5 5.5q-10 3 -8 12l3 73q3 9 12 7t21.5 -3t23.5 -1q18 0 28.5 4t16.5 15.5t7.5 32.5t1.5 55v508zM336 624q-10 0 -10 10v99q0 10 10 10h118q10 0 10 -10v-99q0 -10 -10 -10h-118z" />
    <glyph glyph-name="napostrophe" unicode="&#x22;n" horiz-adv-x="577" 
d="M390 0q-10 0 -10 10v338q0 28 -4 47t-14.5 29.5t-29.5 15t-49 4.5q-46 0 -71 -6q-10 -3 -10 -10v-418q0 -10 -10 -10h-111q-10 0 -10 10v504q0 8 10 10q20 3 46 7t54 7t55.5 5t51.5 2q66 0 109 -9.5t68.5 -31.5t35.5 -58.5t10 -91.5v-344q0 -10 -10 -10h-111zM-16 614
q-5 0 -8 2.5t-2 7.5l39 195q3 10 14 10h87q5 0 8.5 -2.5t1.5 -7.5l-68 -190q-5 -10 -11 -12.5t-20 -2.5h-41z" />
    <glyph glyph-name="uniFB00" unicode="ff" horiz-adv-x="635" 
d="M524 541q0 -6 6 -6h91q10 0 10 -10v-81q0 -10 -10 -10h-91q-6 0 -6 -6v-418q0 -10 -10 -10h-111q-10 0 -10 10v418q0 6 -6 6h-149q-6 0 -6 -6v-418q0 -10 -10 -10h-111q-10 0 -10 10v418q0 6 -6 6h-70q-10 0 -10 10v81q0 10 10 10h70q6 0 6 6v45q0 26 6 52.5t23.5 48
t49.5 35t85 13.5q27 0 49 -3t32 -6q5 -1 6.5 -4.5t0.5 -8.5l-7 -68q-2 -8 -12 -6q-8 2 -20.5 3.5t-26.5 1.5q-32 0 -43.5 -18t-11.5 -47v-38q0 -6 6 -6h149q6 0 6 6v45q0 26 6 52.5t23.5 48t50.5 35t87 13.5q26 0 50 -3t33 -6q5 -1 6.5 -4.5t0.5 -8.5l-6 -69q-2 -8 -12 -6
q-9 2 -22 4t-29 2q-32 0 -44.5 -18t-12.5 -47v-38z" />
    <glyph glyph-name="uniFB01" unicode="fi" horiz-adv-x="603" 
d="M403 0q-10 0 -10 10v418q0 6 -9 6h-146q-6 0 -6 -6v-418q0 -10 -10 -10h-111q-10 0 -10 10v418q0 6 -6 6h-70q-10 0 -10 10v81q0 10 10 10h70q6 0 6 6v43q0 36 11.5 64t40.5 47.5t77.5 29.5t123.5 10q15 0 34.5 -0.5t39 -2t38 -3t31.5 -3.5q12 -2 8 -13l-6 -69
q-4 -8 -15 -6q-20 3 -56.5 5t-69.5 2q-30 0 -53.5 -2t-39.5 -9t-24.5 -20.5t-8.5 -36.5v-36q0 -6 6 -6h276q10 0 10 -10v-515q0 -10 -10 -10h-111z" />
    <glyph glyph-name="uniFB02" unicode="fl" horiz-adv-x="614" 
d="M388 626q0 4 -1.5 7.5t-6.5 4.5q-13 2 -31 3.5t-33 1.5q-46 0 -65 -17.5t-19 -46.5v-38q0 -6 6 -6h83q10 0 10 -10v-81q0 -10 -10 -10h-83q-6 0 -6 -6v-418q0 -10 -10 -10h-112q-10 0 -10 10v418q0 6 -6 6h-69q-10 0 -10 10v81q0 10 10 10h69q6 0 6 6v45q0 81 62 115
t170 34q21 0 45.5 -1.5t49 -3.5t46.5 -4.5t39 -5.5q9 -2 7 -13v-577q0 -24 10 -33t32 -9h32q10 0 10 -10l-3 -66q0 -10 -10 -12q-17 -5 -35.5 -7.5t-41.5 -2.5q-63 0 -94 26t-31 96v514z" />
    <glyph glyph-name="uniFB03" unicode="ffi" horiz-adv-x="895" 
d="M387 535q6 0 6 6v43q0 36 11.5 64t40.5 47.5t77.5 29.5t123.5 10q16 0 35.5 -0.5t39 -2t37.5 -3t31 -3.5q11 -2 9 -13l-7 -69q-4 -7 -15 -6q-20 3 -56.5 5t-68.5 2q-30 0 -53.5 -2t-40 -9t-25 -20.5t-8.5 -36.5v-36q0 -6 6 -6h277q10 0 10 -10v-515q0 -10 -10 -10h-112
q-10 0 -10 10v418q0 6 -9 6h-146q-6 0 -6 -6v-418q0 -10 -10 -10h-111q-10 0 -10 10v418q0 6 -6 6h-149q-6 0 -6 -6v-418q0 -10 -10 -10h-111q-10 0 -10 10v418q0 6 -6 6h-70q-10 0 -10 10v81q0 10 10 10h70q6 0 6 6v45q0 26 6 52.5t23.5 48t49.5 35t85 13.5q27 0 49 -3
t32 -6q5 -1 6.5 -4.5t0.5 -8.5l-7 -68q-2 -8 -12 -6q-8 2 -20.5 3.5t-26.5 1.5q-32 0 -43.5 -18t-11.5 -47v-38q0 -6 6 -6h149z" />
    <glyph glyph-name="uniFB04" unicode="ffl" horiz-adv-x="908" 
d="M387 535q6 0 6 6v45q0 81 62 115t170 34q21 0 45.5 -1.5t49 -3.5t46.5 -4.5t39 -5.5q4 -1 5.5 -4.5t1.5 -8.5v-577q0 -24 10 -33t32 -9h32q10 0 10 -10l-3 -66q0 -10 -10 -12q-17 -5 -35.5 -7.5t-41.5 -2.5q-63 0 -94 26t-31 96v514q0 4 -1.5 7.5t-6.5 4.5q-13 2 -31 3.5
t-33 1.5q-46 0 -65 -17.5t-19 -46.5v-38q0 -6 6 -6h83q10 0 10 -10v-81q0 -10 -10 -10h-83q-6 0 -6 -6v-418q0 -10 -10 -10h-112q-10 0 -10 10v418q0 6 -6 6h-149q-6 0 -6 -6v-418q0 -10 -10 -10h-111q-10 0 -10 10v418q0 6 -6 6h-70q-10 0 -10 10v81q0 10 10 10h70q6 0 6 6
v45q0 26 6 52.5t23.5 48t49.5 35t85 13.5q27 0 49 -3t32 -6q5 -1 6.5 -4.5t0.5 -8.5l-7 -68q-2 -8 -12 -6q-8 2 -20.5 3.5t-26.5 1.5q-30 0 -42.5 -18.5t-12.5 -47.5v-37q0 -6 6 -6h149z" />
    <glyph glyph-name=".notdef" horiz-adv-x="485" 
d="M210 111v63h53v-63h-53zM211 222v16q0 25 2.5 43t9 32.5t17.5 27.5t28 28q30 30 38 46.5t8 33.5q0 34 -21.5 57t-50.5 23t-50.5 -20.5t-26.5 -69.5l-48 8q7 69 42 99.5t86 30.5q52 0 85 -33.5t33 -90.5q0 -31 -12 -55.5t-48 -57.5q-17 -15 -26 -25.5t-13.5 -21t-5.5 -23
t-1 -31.5v-17h-46zM438 47v585h-391v-585h391zM485 680v-680h-485v680h485z" />
    <glyph glyph-name="uni000D" unicode="&#xd;" horiz-adv-x="200" 
 />
    <glyph glyph-name="space" unicode=" " horiz-adv-x="200" 
 />
    <glyph glyph-name="exclam" unicode="!" horiz-adv-x="295" 
d="M106 234q-10 0 -10 10l-23 426q0 10 10 10h136q10 0 10 -10l-23 -426q0 -10 -10 -10h-90zM84 0q-10 0 -10 10v120q0 10 10 10h125q10 0 10 -10v-120q0 -10 -10 -10h-125z" />
    <glyph glyph-name="quotedbl" unicode="&#x22;" horiz-adv-x="387" 
d="M75 469q-10 0 -10 10l-16 255q0 10 10 10h97q10 0 10 -10l-18 -255q0 -10 -10 -10h-63zM247 469q-10 0 -10 10l-16 255q0 10 10 10h97q10 0 10 -10l-18 -255q0 -10 -10 -10h-63z" />
    <glyph glyph-name="numbersign" unicode="#" horiz-adv-x="560" 
d="M147 431q1 6 -5 6h-61q-10 0 -8 10l12 66q2 10 11 10h61q6 0 8 6l25 141q2 10 11 10h75q11 0 9 -10l-24 -141q-2 -6 4 -6h81q4 0 6 6l24 141q2 10 11 10h77q11 0 9 -10l-24 -141q-2 -6 4 -6h60q11 0 9 -10l-12 -66q-2 -10 -12 -10h-60q-6 0 -7 -6l-29 -167q-2 -6 5 -6h62
q10 0 8 -10l-11 -65q-2 -10 -11 -10h-62q-7 0 -7 -5l-29 -158q-2 -10 -11 -10h-77q-11 0 -9 10l28 157q1 6 -4 6h-79q-7 0 -7 -5l-29 -158q-2 -10 -11 -10h-75q-11 0 -9 10l27 157q1 6 -4 6h-58q-11 0 -9 10l10 65q2 10 12 10h59q5 0 7 6zM334 431q1 6 -5 6h-79q-6 0 -7 -6
l-29 -167q-2 -6 5 -6h81q3 0 5 6z" />
    <glyph glyph-name="dollar" unicode="$" 
d="M255 760q0 10 10 10h65q10 0 10 -10v-80q0 -4 2 -5q35 -2 67.5 -7.5t46.5 -10.5q4 -3 4 -9l-5 -83q0 -6 -6 -6q-13 3 -31 5.5t-37.5 4t-38.5 2.5t-35 1q-44 0 -61 -15.5t-17 -51.5q0 -14 3.5 -25.5t15.5 -25t34 -31t60 -44.5q30 -21 53 -41t38.5 -42t23.5 -48.5t8 -61.5
q0 -80 -33.5 -121.5t-99.5 -52.5q-3 -2 -3 -4v-95q0 -10 -10 -10h-65q-10 0 -10 10v92q0 4 -4 4q-45 2 -81 7t-59 10q-9 1 -9 8l7 86q0 7 6 7q36 -7 73 -10t75 -3q43 0 61.5 16t18.5 56q0 13 -2.5 24.5t-15.5 27t-40.5 39t-76.5 61.5q-31 23 -50 43.5t-30 41t-15 42t-4 46.5
q0 83 38.5 118.5t115.5 43.5q3 1 3 6v81z" />
    <glyph glyph-name="percent" unicode="%" horiz-adv-x="743" 
d="M538 670q2 4 5.5 7t8.5 3h57q11 0 9 -10l-411 -660q-2 -4 -5.5 -7t-8.5 -3h-57q-11 0 -9 10zM137 516q0 -29 4.5 -57.5t13.5 -38.5q10 -11 32 -11t32 11q9 10 13.5 38.5t4.5 57.5q0 30 -4.5 59t-13.5 39q-10 11 -32 11t-32 -11q-9 -10 -13.5 -39t-4.5 -59zM324 516
q0 -20 -2.5 -42.5t-8.5 -43.5t-15.5 -38.5t-22.5 -26.5q-17 -11 -37 -16.5t-51 -5.5t-51 5.5t-37 16.5q-14 9 -23 26.5t-15 38.5t-8.5 43.5t-2.5 42.5t2.5 42.5t8.5 43.5t15 38.5t23 27.5q17 12 37 17t51 5t51 -5t37 -17q13 -10 22.5 -27.5t15.5 -38.5t8.5 -43.5t2.5 -42.5z
M506 164q0 -15 1 -30t3.5 -28.5t5.5 -23.5t8 -15q10 -10 32 -10q21 0 31 10q5 5 8.5 15t5.5 23.5t3 28.5t1 30t-1 30t-3 28.5t-5.5 24t-8.5 15.5q-10 10 -31 10q-22 0 -32 -10q-5 -5 -8 -15.5t-5.5 -24t-3.5 -28.5t-1 -30zM693 163q0 -20 -2.5 -42.5t-8.5 -43.5t-15.5 -38.5
t-22.5 -26.5q-18 -11 -38 -16.5t-50 -5.5q-31 0 -51 5.5t-38 16.5q-14 9 -23 26.5t-15 38.5t-8.5 43.5t-2.5 42.5t2.5 43t8.5 44t15 38.5t23 26.5q18 12 38 17t51 5q30 0 50 -5t38 -17q13 -9 22.5 -26.5t15.5 -38.5t8.5 -44t2.5 -43z" />
    <glyph glyph-name="ampersand" unicode="&#x26;" horiz-adv-x="687" 
d="M381 160q0 5 -6 11l-112 116q-4 4 -9 4q-6 0 -10 -3q-18 -12 -30 -21.5t-18.5 -21t-9 -26t-2.5 -36.5q0 -50 17.5 -73t65.5 -23q22 0 38 3t28 10t22 18.5t20 27.5q2 4 4 7.5t2 6.5zM361 528q0 41 -12 57t-55 16t-59 -14t-16 -57q0 -20 2.5 -37.5t10.5 -29.5
q14 -22 28 -36t21 -14q4 0 12 3t18 9t20 14.5t18 19.5q7 10 9.5 27.5t2.5 41.5zM600 -7q-28 0 -47.5 6t-35.5 23l-52 56q-2 2 -6 3t-7 -4q-19 -27 -38 -44t-41 -26.5t-48.5 -13t-61.5 -3.5q-51 0 -89 9t-63 30t-37.5 56t-12.5 87q0 36 5.5 62.5t18.5 47.5t35 38.5t55 35.5
q2 1 4 2.5t2 5.5q0 5 -2 6.5t-3 2.5q-21 19 -35.5 37t-23.5 36.5t-13 40t-4 47.5q0 48 12.5 78t37 47.5t61 24t84.5 6.5q51 0 86.5 -7.5t57 -25t31.5 -46t10 -71.5q0 -35 -6 -60t-20.5 -45.5t-39.5 -38.5t-62 -39q-4 -2 -4 -7q0 -4 3 -7l86 -86q3 -3 8 -3q4 0 8 7
q6 10 13 25.5t14.5 33.5t15 38t13.5 40q2 7 5 8.5t8 1.5h109q5 0 5.5 -3.5t-1.5 -8.5q-8 -21 -21 -49t-27 -57.5t-27.5 -55.5t-23.5 -42q-2 -4 -2 -9q0 -4 3 -7q23 -26 38 -41.5t25.5 -23.5t18.5 -10.5t17 -2.5q7 0 11 0.5t8 1.5q3 1 6.5 0.5t4.5 -4.5v-85q0 -7 -5 -9
q-17 -5 -33.5 -7t-27.5 -2z" />
    <glyph glyph-name="quotesingle" unicode="'" horiz-adv-x="215" 
d="M75 469q-10 0 -10 10l-16 255q0 10 10 10h97q10 0 10 -10l-18 -255q0 -10 -10 -10h-63z" />
    <glyph glyph-name="parenleft" unicode="(" horiz-adv-x="360" 
d="M176 295q0 -94 3 -159.5t14.5 -110t35 -70.5t65.5 -42q5 -2 5 -11v-67q-1 -7 -10 -7q-11 0 -27.5 4t-33.5 11q-54 22 -86.5 58.5t-50.5 91t-23.5 129.5t-5.5 174q0 98 5.5 172t23.5 128t50.5 90t86.5 59q17 7 33.5 11.5t27.5 4.5q9 0 10 -7v-67q0 -9 -5 -11
q-42 -16 -65.5 -42t-35 -70.5t-14.5 -109.5t-3 -159z" />
    <glyph glyph-name="parenright" unicode=")" horiz-adv-x="360" 
d="M184 293q0 94 -3 159.5t-14.5 110t-35.5 70.5t-66 42q-4 1 -4 11v67q1 7 10 7q11 0 27.5 -4.5t33.5 -11.5q54 -23 86.5 -59t50 -90t23 -129t5.5 -174q0 -98 -5.5 -172.5t-23 -128.5t-50 -90.5t-86.5 -58.5q-17 -7 -33.5 -11t-27.5 -4q-9 0 -10 7v67q0 10 4 11
q42 16 66 42t35.5 70.5t14.5 109.5t3 159z" />
    <glyph glyph-name="asterisk" unicode="*" horiz-adv-x="499" 
d="M282 745q10 0 10 -10l-11 -124q0 -10 -10 -10h-44q-10 0 -10 10l-11 124q0 10 10 10h66zM216 312q-10 0 -10 10l11 124q0 10 10 10h44q10 0 10 -10l11 -124q0 -10 -10 -10h-66zM77 664q4 9 14 4l101 -71q10 -5 4 -14l-21 -38q-5 -8 -14 -3l-113 51q-9 5 -4 14zM420 392
q-5 -8 -14 -4l-102 72q-8 5 -3 13l21 38q5 9 14 4l113 -52q9 -5 4 -13zM452 608q5 -9 -3 -14l-113 -52q-9 -5 -14 3l-21 38q-5 9 3 14l101 72q9 4 14 -4zM45 447q-5 10 4 14l112 53q9 6 14 -4l22 -38q5 -8 -4 -13l-102 -71q-8 -5 -13 3z" />
    <glyph glyph-name="plus" unicode="+" 
d="M231 489q0 11 11 11h83q11 0 11 -11v-159q0 -7 6 -7h150q11 0 11 -11v-76q0 -11 -11 -11h-150q-6 0 -6 -7v-157q0 -11 -11 -11h-84q-10 0 -10 11v157q0 7 -7 7h-150q-11 0 -11 11v76q0 11 11 11h150q7 0 7 7v159z" />
    <glyph glyph-name="comma" unicode="," horiz-adv-x="281" 
d="M68 -142q-10 0 -10 10l28 274q0 10 10 10h112q10 0 10 -10l-60 -264q-2 -8 -8.5 -14t-25.5 -6h-56z" />
    <glyph glyph-name="hyphen" unicode="-" horiz-adv-x="366" 
d="M60 248q-10 0 -10 10v85q0 10 10 10h246q10 0 10 -10v-85q0 -10 -10 -10h-246z" />
    <glyph glyph-name="period" unicode="." horiz-adv-x="281" 
d="M79 0q-10 0 -10 10v125q0 10 10 10h124q10 0 10 -10v-125q0 -10 -10 -10h-124z" />
    <glyph glyph-name="slash" unicode="/" horiz-adv-x="430" 
d="M309 718q2 11 8 11h81q9 0 7 -11l-283 -816q-2 -11 -8 -11h-81q-8 0 -6 11z" />
    <glyph glyph-name="zero" unicode="0" 
d="M187 340q0 -32 2 -66.5t6.5 -66t11 -56.5t15.5 -37q11 -15 25.5 -18.5t36.5 -3.5q23 0 36.5 4t24.5 18q9 12 15.5 37t11 56.5t7 66t2.5 66.5q0 31 -2.5 66.5t-7 67t-11 56.5t-15.5 37q-11 15 -24.5 19t-36.5 4q-22 0 -36.5 -4t-25.5 -19q-9 -11 -15.5 -36t-11 -57
t-6.5 -67.5t-2 -66.5zM514 340q0 -39 -4.5 -85.5t-15 -90t-26.5 -79.5t-40 -54q-15 -12 -29.5 -19.5t-31 -12.5t-36.5 -7t-47 -2t-47 2t-37 7t-31.5 12.5t-29.5 19.5q-24 18 -40 54t-26 79.5t-14.5 90t-4.5 85.5t4.5 85.5t14.5 90t26 79.5t40 54q15 12 29.5 19.5t31.5 12.5
t37 7t47 2t47 -2t36.5 -7t31 -12.5t29.5 -19.5q24 -18 40 -54t26.5 -79.5t15 -90t4.5 -85.5z" />
    <glyph glyph-name="one" unicode="1" 
d="M226 677q9 3 20 3h108q10 0 10 -10v-553q0 -6 6 -6h114q10 0 10 -10v-91q0 -10 -10 -10h-384q-10 0 -10 10v91q0 10 10 10h129q6 0 6 6v446q-2 5 -6 5l-139 -30q-10 0 -10 10v90q0 8 10 11z" />
    <glyph glyph-name="two" unicode="2" 
d="M280 690q57 0 98.5 -7.5t68.5 -26.5t40 -51t13 -81q0 -40 -8 -68.5t-27 -53.5t-49 -49.5t-74 -55.5q-41 -30 -67 -52.5t-40.5 -43t-20 -39.5t-5.5 -41q0 -7 1.5 -9t7.5 -2h270q10 0 10 -10v-90q0 -10 -10 -10h-406q-6 0 -10.5 2t-4.5 8v75q0 45 8.5 78t29 63.5t54.5 61.5
t86 72q36 26 58.5 44.5t35 34.5t17 31.5t4.5 35.5q0 24 -7.5 38t-21.5 21.5t-34 9.5t-46 2q-15 0 -33.5 -1.5t-37.5 -3.5t-36 -5.5t-30 -6.5q-9 -1 -10 10l-10 90q0 7 8 10q15 4 37.5 8t47 6.5t49 4t44.5 1.5z" />
    <glyph glyph-name="three" unicode="3" 
d="M287 404q-5 -3 -5 -8q0 -4 2 -5.5t4 -1.5q57 0 97 -13.5t65.5 -37.5t37.5 -58t12 -75q0 -67 -20.5 -109t-56.5 -65.5t-85 -32t-107 -8.5q-32 0 -73 3.5t-82 12.5q-10 2 -10 10l8 86q0 9 10 9q15 -3 33 -5.5t36 -4t34 -2t28 -0.5q36 0 64 3t46.5 14.5t28 33t9.5 58.5
q0 28 -9.5 47t-32 31t-59 17t-89.5 5h-45q-10 0 -10 8v68q0 5 2 8.5t9 8.5q39 30 74.5 58t62.5 51.5t42.5 39t15.5 19.5q0 5 -7 5h-237q-9 0 -9 10v86q0 10 10 10h396q10 0 10 -7v-90q0 -4 -2 -8.5t-10 -12.5q-67 -67 -188 -158z" />
    <glyph glyph-name="four" unicode="4" 
d="M39 245q0 8 1 16.5t6 24t16 42t31.5 71t51.5 110.5t77 161q4 10 13 10h105q5 0 9 -2.5t2 -8.5q-52 -101 -88.5 -174t-60 -122.5t-34.5 -76.5t-11 -36q0 -8 7 -8h156q6 0 6 6v198q0 10 10 10h105q10 0 10 -10v-198q0 -6 6 -6h67q10 0 10 -10v-86q0 -10 -10 -10h-67
q-6 0 -6 -6v-130q0 -10 -10 -10h-105q-10 0 -10 10v130q0 6 -6 6h-271q-10 0 -10 10v89z" />
    <glyph glyph-name="five" unicode="5" 
d="M231 572q-9 0 -10 -8l-7 -135q0 -8 6 -8q70 0 122 -8.5t86.5 -31t51.5 -60.5t17 -98q0 -72 -21.5 -117t-59 -71t-88.5 -35.5t-111 -9.5q-40 0 -79 4.5t-69 11.5q-6 1 -6 9l8 93q0 2 2.5 4.5t6.5 0.5q25 -7 62 -10.5t65 -3.5q42 0 70.5 5.5t46 18t25.5 34.5t8 55
q0 35 -9.5 56.5t-32.5 33t-62.5 15.5t-99.5 4h-47q-16 0 -16 18l11 328q0 8 2 10.5t9 2.5h359q10 0 10 -10v-88q0 -10 -10 -10h-240z" />
    <glyph glyph-name="six" unicode="6" 
d="M387 205q0 41 -5.5 66t-17.5 38t-31.5 17t-48.5 4q-32 0 -52.5 -4.5t-32 -17.5t-15.5 -38t-4 -65q0 -38 5.5 -60.5t18 -34t32 -15t48.5 -3.5q31 0 51 3.5t31.5 15t16 34t4.5 60.5zM414 667q-15 -19 -38.5 -47t-48.5 -61t-49.5 -68t-42.5 -68q-2 -4 -2 -9q0 -7 8 -7t16 2
l18 4.5t23.5 4t32.5 1.5q56 0 92 -12t57 -37t29 -64t8 -94q0 -69 -14.5 -112.5t-43.5 -67.5t-73 -33t-103 -9q-61 0 -105 10t-72 35t-41.5 66.5t-13.5 103.5q0 54 7.5 103t30 103t63.5 116.5t108 142.5q9 10 25 10h112q11 0 16 -3t1 -10z" />
    <glyph glyph-name="seven" unicode="7" 
d="M489 558q-21 -52 -45 -97.5t-47 -88.5t-44 -86t-37 -90q-17 -51 -22 -93t-5 -91q0 -9 -3 -10.5t-8 -1.5h-108q-6 0 -10.5 2t-4.5 8v28q0 61 14.5 118.5t37 109t48 96.5t48 82.5t37 66.5t14.5 49q0 6 -6 6h-265q-10 0 -10 10v94q0 10 10 10h402q10 0 10 -10v-82
q0 -5 -1 -12.5t-5 -17.5z" />
    <glyph glyph-name="eight" unicode="8" 
d="M159 364q-45 20 -71.5 59t-26.5 100q0 47 15 79t43.5 51.5t69.5 28t94 8.5t94 -8.5t69.5 -28t43.5 -51.5t15 -79q0 -60 -27 -97t-72 -57q-1 -1 -3 -2.5t-2 -6.5q0 -4 2 -5.5t4 -2.5q64 -32 90 -76t26 -111q0 -53 -17.5 -87t-49 -53.5t-75.5 -27t-98 -7.5t-98 7.5
t-75.5 27t-48.5 53.5t-17 87q0 69 26 111.5t88 70.5q2 1 4 2.5t2 5.5q0 5 -2 6.5t-3 2.5zM394 174q0 60 -30.5 97.5t-81.5 37.5q-50 0 -80 -37.5t-30 -97.5q0 -27 6 -43t19 -25t34.5 -12t51.5 -3q31 0 52 3t34 12t19 25t6 43zM378 510q0 46 -18.5 66t-73.5 20
q-59 0 -78.5 -19.5t-19.5 -66.5q0 -22 5.5 -42.5t17 -36.5t29.5 -25.5t43 -9.5t43 9.5t29.5 25.5t17 36.5t5.5 42.5z" />
    <glyph glyph-name="nine" unicode="9" 
d="M181 476q0 -42 5 -66.5t17 -38t31.5 -17.5t48.5 -4q33 0 53 4.5t31.5 18t15.5 38t4 65.5q0 38 -5.5 59.5t-18 32.5t-32.5 13.5t-48 2.5q-31 0 -50.5 -2.5t-31 -13.5t-16 -32.5t-4.5 -59.5zM154 13q20 23 44 52.5t48 61.5t46.5 65.5t40.5 64.5q2 4 2 9q0 7 -8 7
q-16 -1 -34.5 -6.5t-56.5 -5.5q-56 0 -92 12t-57 37t-29 64t-8 94q0 69 14.5 112.5t43.5 67.5t73 33t103 9q61 0 105 -10.5t72 -35t41.5 -66t13.5 -103.5q0 -54 -7.5 -103t-29.5 -103t-63 -116.5t-108 -142.5q-9 -10 -25 -10h-112q-11 0 -16.5 3t-0.5 10z" />
    <glyph glyph-name="colon" unicode=":" horiz-adv-x="323" 
d="M102 0q-10 0 -10 10v125q0 10 10 10h124q10 0 10 -10v-125q0 -10 -10 -10h-124zM102 390q-10 0 -10 10v125q0 10 10 10h124q10 0 10 -10v-125q0 -10 -10 -10h-124z" />
    <glyph glyph-name="semicolon" unicode=";" horiz-adv-x="323" 
d="M89 -142q-10 0 -10 10l28 274q0 10 10 10h112q10 0 10 -10l-60 -264q-2 -8 -9 -14t-25 -6h-56zM102 390q-10 0 -10 10v125q0 10 10 10h124q10 0 10 -10v-125q0 -10 -10 -10h-124z" />
    <glyph glyph-name="less" unicode="&#x3c;" 
d="M496 426q0 -20 -15 -24l-300 -115q-3 -5 -3 -11q0 -8 3 -12l300 -117q6 -2 10.5 -8t4.5 -16v-77q0 -11 -11 -11l-403 164q-11 7 -11 16v119q0 9 11 16l403 165q11 0 11 -11v-78z" />
    <glyph glyph-name="equal" unicode="=" 
d="M80 133q-11 0 -11 11v76q0 11 11 11h408q11 0 11 -11v-76q0 -11 -11 -11h-408zM80 318q-11 0 -11 11v76q0 11 11 11h408q11 0 11 -11v-76q0 -11 -11 -11h-408z" />
    <glyph glyph-name="greater" unicode="&#x3e;" 
d="M71 123q0 19 16 24l299 114q3 4 3 11t-3 13l-299 116q-16 5 -16 24v78q0 11 11 11l403 -165q11 -6 11 -16v-119q0 -10 -11 -16l-403 -164q-11 0 -11 11v78z" />
    <glyph glyph-name="question" unicode="?" horiz-adv-x="436" 
d="M189 579q-31 0 -68.5 -6t-63.5 -13q-9 -1 -10 10l-10 90q0 7 8 10q15 4 36.5 8t45 6.5t47.5 4t44 1.5q49 0 85.5 -5.5t60.5 -23t36 -49t12 -82.5q0 -33 -7 -56.5t-21 -42t-35.5 -34.5t-50.5 -32q-24 -14 -37.5 -27t-20 -28.5t-7.5 -34.5t-1 -45q0 -11 -1 -14.5t-6 -3.5
h-93q-8 0 -8 23q0 33 3 59.5t11 47.5t21.5 38.5t35.5 34.5q26 16 41.5 27.5t24 22.5t11 23.5t2.5 31.5q0 12 -2.5 23t-11 19t-25.5 12.5t-46 4.5zM118 0q-10 0 -10 10v120q0 10 10 10h124q10 0 10 -10v-120q0 -10 -10 -10h-124z" />
    <glyph glyph-name="at" unicode="@" horiz-adv-x="870" 
d="M518 418q2 9 4 23.5t2 19.5q0 6 -9.5 8t-41.5 2q-21 0 -35.5 -5.5t-26 -22.5t-21 -49t-19.5 -85q-3 -13 -5 -27.5t-3.5 -28.5t-2 -26.5t-0.5 -21.5q0 -24 2.5 -40.5t10.5 -27t23.5 -15t41.5 -4.5q18 0 23 2t6 7zM816 403q0 -78 -13.5 -144t-46 -114.5t-87 -75.5
t-136.5 -27q-19 0 -31 3.5t-18.5 8t-10 8t-6.5 3.5q-4 0 -9 -3.5t-13 -8t-20 -8t-30 -3.5q-38 0 -65.5 12t-45 33t-25.5 51t-8 66q0 20 1.5 44.5t6.5 52.5q12 70 28.5 117.5t41.5 76.5t61.5 41t88.5 12q81 0 118.5 -10t37.5 -29q0 -7 -1.5 -18.5t-3.5 -25.5l-56 -312
q-2 -8 -2 -12.5v-8.5q0 -11 11 -11q41 0 70 20.5t47 58t26 89t8 114.5q0 67 -12 115t-40.5 79t-74.5 45t-114 14q-110 0 -177 -34.5t-104.5 -94t-50 -139.5t-12.5 -170q0 -75 17 -130t56 -92t101.5 -55t153.5 -18q53 0 100.5 6t73.5 13q7 2 8 -6l7 -56q0 -8 -7 -10
q-17 -6 -40.5 -10.5t-50 -7.5t-55 -5t-55.5 -2q-203 0 -301 93t-98 282q0 67 7 130t25.5 118.5t50 102t80.5 80t117.5 52t160.5 18.5q76 0 134.5 -15t99 -51.5t61.5 -97.5t21 -154z" />
    <glyph glyph-name="A" unicode="A" horiz-adv-x="588" 
d="M395 165q-1 7 -8 7h-195q-9 0 -10 -7l-38 -155q-4 -10 -13 -10h-116q-8 0 -8 6q0 3 1 4q7 30 20.5 81t30.5 113t35 129.5t36 130.5t33 117t26 89q3 10 12 10h191q9 0 12 -10q11 -37 26.5 -94.5t33.5 -123.5t36 -135t34 -130t28 -108t17 -69v-4q0 -6 -7 -6h-128
q-11 0 -13 10zM370 273q6 0 6 6q-4 19 -12 55.5t-18 78.5t-19.5 83.5t-16.5 70.5q-1 3 -4 4t-13 1t-13 -1t-4 -4q-8 -29 -18.5 -70.5t-21 -83.5t-19 -78.5t-12.5 -55.5q0 -6 6 -6h159z" />
    <glyph glyph-name="B" unicode="B" horiz-adv-x="590" 
d="M303 680q50 0 90.5 -8.5t69 -28t43.5 -52.5t15 -81q0 -35 -6.5 -58.5t-17.5 -39t-24.5 -25.5t-28.5 -19q-8 -5 -10 -7t-2 -6q0 -6 6 -8q19 -8 36.5 -19.5t31 -30.5t21.5 -47.5t8 -68.5q0 -51 -17.5 -85.5t-45.5 -56t-64.5 -30.5t-73.5 -9h-246q-10 0 -10 10v660
q0 10 10 10h215zM284 387q25 1 44 6.5t32 17.5t19.5 32t6.5 51q0 48 -22.5 69t-83.5 21h-63q-7 0 -7 -7v-182q0 -8 9 -8h65zM273 98q36 0 60 4.5t38.5 15.5t20.5 31t6 51q0 32 -9 52t-24.5 31.5t-37.5 15.5t-47 4h-61q-9 0 -9 -9v-189q0 -7 7 -7h56z" />
    <glyph glyph-name="C" unicode="C" horiz-adv-x="503" 
d="M459 9q-26 -8 -61.5 -13.5t-79.5 -5.5q-73 0 -123.5 22.5t-81.5 66.5t-44.5 108.5t-13.5 147.5q0 82 13.5 147.5t44.5 111.5t81.5 71t123.5 25q44 0 79.5 -4.5t55.5 -12.5q3 -2 5 -3t2 -6l-5 -95q0 -2 -3 -4.5t-7 -0.5q-20 6 -49 10t-58 4q-43 0 -70.5 -12.5t-43 -41
t-21.5 -75t-6 -115.5q0 -65 6 -109t21.5 -71.5t43 -39.5t70.5 -12q28 0 57 4t48 9q4 1 8 0.5t5 -5.5l7 -89q2 -10 -4 -12z" />
    <glyph glyph-name="D" unicode="D" horiz-adv-x="641" 
d="M448 345q0 51 -5 93.5t-19 73.5t-38.5 48.5t-63.5 17.5h-105q-6 0 -6 -6v-463q0 -6 5 -6h107q38 0 62.5 18t38.5 50.5t19 76.5t5 97zM340 680q76 0 124 -30t75 -78.5t36.5 -109.5t9.5 -122q0 -62 -9.5 -122.5t-36.5 -109t-75 -78.5t-124 -30h-252q-10 0 -10 10v660
q0 10 10 10h252z" />
    <glyph glyph-name="E" unicode="E" horiz-adv-x="497" 
d="M78 670q0 10 10 10h346q10 0 10 -10v-89q0 -10 -10 -10h-216q-6 0 -6 -6v-158q0 -6 6 -6h201q10 0 10 -10v-83q0 -10 -10 -10h-201q-6 0 -6 -6v-175q0 -6 6 -6h232q10 0 10 -10v-91q0 -10 -10 -10h-362q-10 0 -10 10v660z" />
    <glyph glyph-name="F" unicode="F" horiz-adv-x="473" 
d="M78 670q0 10 10 10h338q10 0 10 -10v-89q0 -10 -10 -10h-208q-6 0 -6 -6v-176q0 -6 6 -6h195q10 0 10 -10v-83q0 -10 -10 -10h-195q-6 0 -6 -6v-264q0 -10 -10 -10h-114q-10 0 -10 10v660z" />
    <glyph glyph-name="G" unicode="G" horiz-adv-x="603" 
d="M362 581q-43 0 -74 -12t-51.5 -40.5t-30 -76t-9.5 -118.5q0 -67 8 -112.5t26.5 -73t48 -39t72.5 -11.5q16 0 32.5 2t25.5 5q7 2 7 9v169q0 6 -6 6h-79q-10 0 -10 10v87q0 10 10 10h199q10 0 10 -10v-349q0 -8 -1.5 -11.5t-7.5 -5.5q-32 -11 -82.5 -20.5t-110.5 -9.5
q-152 0 -218 89t-66 256q0 82 16 147.5t50.5 111.5t89 71t131.5 25q22 0 45.5 -1.5t45.5 -3.5t40 -5t28 -7q3 -2 5 -3t2 -6l-5 -95q0 -2 -3 -4.5t-7 -0.5q-10 3 -26 6t-34.5 5.5t-37 4t-33.5 1.5z" />
    <glyph glyph-name="H" unicode="H" horiz-adv-x="642" 
d="M430 670q0 10 10 10h114q10 0 10 -10v-660q0 -10 -10 -10h-114q-10 0 -10 10v280q0 6 -6 6h-207q-6 0 -6 -6v-280q0 -10 -10 -10h-113q-10 0 -10 10v660q0 10 10 10h113q10 0 10 -10v-262q0 -6 6 -6h207q6 0 6 6v262z" />
    <glyph glyph-name="I" unicode="I" horiz-adv-x="289" 
d="M88 0q-10 0 -10 10v660q0 10 10 10h113q10 0 10 -10v-660q0 -10 -10 -10h-113z" />
    <glyph glyph-name="J" unicode="J" horiz-adv-x="328" 
d="M17 -1q-6 2 -6 13l4 82q1 9 10 9q6 -2 16.5 -2.5t18.5 -0.5q20 0 32 3.5t18.5 13.5t8.5 27.5t2 44.5v481q0 10 10 10h113q10 0 10 -10v-500q0 -47 -6 -81t-23.5 -56t-49 -32t-81.5 -10q-22 0 -44 3t-33 5z" />
    <glyph glyph-name="K" unicode="K" horiz-adv-x="575" 
d="M557 670q-7 -12 -21 -34t-31.5 -48.5t-36.5 -56t-37.5 -58t-34.5 -53t-27 -40.5q-7 -10 -8.5 -14t-1.5 -8q0 -10 9 -23q11 -17 28.5 -44.5t37.5 -59.5t41 -66.5t39.5 -65t32 -54.5t19.5 -35q0 -10 -9 -10h-130q-6 0 -9.5 3t-5.5 6q-12 22 -32.5 60t-44 79t-45.5 79
t-36 61q-5 8 -11 10t-21 2q-10 0 -10 -7v-283q0 -10 -10 -10h-114q-10 0 -10 10v660q0 10 10 10h114q10 0 10 -10v-261q0 -7 12 -7q28 0 32 7q15 24 37 61t44.5 75t42 72t30.5 53q4 10 12 10h127q8 0 8 -10z" />
    <glyph glyph-name="L" unicode="L" horiz-adv-x="409" 
d="M78 670q0 10 10 10h113q10 0 10 -10v-553q0 -6 6 -6h166q10 0 10 -10v-91q0 -10 -10 -10h-295q-10 0 -10 10v660z" />
    <glyph glyph-name="M" unicode="M" horiz-adv-x="783" 
d="M514 670q2 10 13 10h168q10 0 10 -10v-660q0 -10 -10 -10h-114q-10 0 -10 10l6 512q0 8 -1 10t-5 2q-6 0 -9 -13l-111 -350q-4 -11 -6.5 -14t-10.5 -3h-94q-9 0 -12 2t-7 13l-102 352q-3 8 -4.5 10.5t-5.5 2.5t-5 -3t-1 -12l6 -509q0 -10 -10 -10h-111q-10 0 -10 10v660
q0 10 10 10h177q7 0 11 -10l107 -368q3 -8 4.5 -10.5t5.5 -2.5q5 0 6.5 2.5t3.5 10.5z" />
    <glyph glyph-name="N" unicode="N" horiz-adv-x="659" 
d="M410 0q-10 0 -14 12l-181 490q-6 20 -14 20q-5 0 -6 -3t-1 -16l8 -493q0 -10 -10 -10h-104q-10 0 -10 10v660q0 10 10 10h171q8 0 13 -12l170 -473q4 -11 6 -13.5t6 -2.5q7 0 7 10l-7 481q0 10 10 10h106q10 0 10 -10v-660q0 -10 -10 -10h-160z" />
    <glyph glyph-name="O" unicode="O" horiz-adv-x="647" 
d="M196 340q0 -36 2 -69.5t6 -62t10 -50t14 -33.5q12 -17 34.5 -21t60.5 -4q40 0 62 4t34 21q8 12 14 33.5t10 50t6 62t2 69.5t-2 69.5t-6 62t-10 50t-14 33.5q-12 17 -34 21t-60 4q-40 0 -62.5 -4t-34.5 -21q-8 -12 -14 -33.5t-10 -50t-6 -62t-2 -69.5zM590 340
q0 -96 -17.5 -172t-50.5 -115q-32 -38 -79.5 -50.5t-120.5 -12.5t-119.5 12.5t-78.5 50.5q-32 39 -49.5 115t-17.5 172t17.5 172t49.5 115q32 38 80 50.5t121 12.5t119 -13t78 -50q33 -39 50.5 -115t17.5 -172z" />
    <glyph glyph-name="P" unicode="P" horiz-adv-x="550" 
d="M283 680q51 0 93 -10.5t71.5 -35t45.5 -64.5t16 -100q0 -71 -18 -115.5t-50 -69.5t-75 -33.5t-94 -8.5h-47q-9 0 -11.5 -1.5t-2.5 -5.5v-226q0 -10 -10 -10h-113q-10 0 -10 10v660q0 10 10 10h195zM266 343q30 0 51.5 5t35 18.5t20 38t6.5 62.5q0 69 -26.5 93t-84.5 24
h-50q-7 0 -7 -7v-227q0 -7 7 -7h48z" />
    <glyph glyph-name="Q" unicode="Q" horiz-adv-x="647" 
d="M590 340q0 -96 -17.5 -171t-50.5 -114q-23 -27 -54 -39.5t-75 -17.5q-5 -3 -5 -18q0 -32 8 -47.5t43 -15.5h87q9 0 9 -10l-4 -61q-1 -6 -2 -9.5t-6 -6.5q-6 -5 -30 -8.5t-71 -3.5q-46 0 -75.5 6.5t-47 23.5t-24.5 47.5t-7 78.5q0 21 -10 24q-45 4 -77 15t-57 40
q-32 39 -49.5 115t-17.5 172t17.5 172t49.5 115q32 38 80 50.5t121 12.5t119 -13t78 -50q33 -39 50.5 -115t17.5 -172zM196 340q0 -36 2 -69.5t6 -62t10 -50t14 -33.5q12 -17 34.5 -21t60.5 -4q40 0 62 4t34 21q8 12 14 33.5t10 50t6 62t2 69.5t-2 69.5t-6 62t-10 50
t-14 33.5q-12 17 -34 21t-60 4q-40 0 -62.5 -4t-34.5 -21q-8 -12 -14 -33.5t-10 -50t-6 -62t-2 -69.5z" />
    <glyph glyph-name="R" unicode="R" horiz-adv-x="592" 
d="M305 238q-6 11 -8.5 14.5t-7.5 4.5h-70q-8 0 -8 -7v-240q0 -10 -10 -10h-113q-10 0 -10 10v660q0 10 10 10h203q115 0 172 -42.5t57 -145.5q0 -68 -18 -111t-70 -73q-10 -9 -10 -14q0 -13 16 -39l133 -245q2 -4 1.5 -7t-6.5 -3h-133q-8 0 -12 9zM267 347q64 0 89 28
t25 95q0 34 -5 55.5t-18 34.5t-35 18t-56 5h-43q-8 0 -10.5 -1.5t-2.5 -4.5v-222q0 -7 7 -8h49z" />
    <glyph glyph-name="S" unicode="S" horiz-adv-x="494" 
d="M426 563q-14 3 -32.5 6t-38.5 4.5t-40.5 2.5t-36.5 1q-45 0 -63 -16t-18 -54q0 -15 3.5 -27t16 -26t36 -32.5t62.5 -46.5q31 -22 55 -42.5t40.5 -43.5t24.5 -50.5t8 -64.5q0 -97 -49.5 -139t-144.5 -42q-60 0 -109.5 5.5t-78.5 12.5q-9 1 -9 8l7 90q0 7 7 7
q38 -7 76.5 -10.5t77.5 -3.5q45 0 64.5 15t19.5 57q0 14 -3 26t-16.5 28.5t-42 41t-79.5 63.5q-32 24 -52 45.5t-31.5 42.5t-15.5 43.5t-4 48.5q0 50 14 83.5t41.5 53t68.5 27.5t95 8q21 0 44.5 -1.5t45 -4.5t38.5 -6.5t26 -7.5q5 -3 5 -9l-6 -87q0 -6 -6 -6z" />
    <glyph glyph-name="T" unicode="T" horiz-adv-x="448" 
d="M157 564q0 6 -6 6h-128q-10 0 -10 10v90q0 10 10 10h402q10 0 10 -10v-90q0 -10 -10 -10h-129q-6 0 -6 -6v-554q0 -10 -10 -10h-113q-10 0 -10 10v554z" />
    <glyph glyph-name="U" unicode="U" horiz-adv-x="630" 
d="M558 153q0 -41 -17.5 -71.5t-50 -50.5t-77.5 -30.5t-99 -10.5q-125 0 -183.5 41t-58.5 122v517q0 10 10 10h113q10 0 10 -10v-478q0 -29 9 -47t24 -27.5t35 -12.5t43 -3q22 0 42 3t35 13t24 27.5t9 47.5v477q0 10 10 10h112q10 0 10 -10v-517z" />
    <glyph glyph-name="V" unicode="V" horiz-adv-x="570" 
d="M145 680q9 0 10 -10q7 -35 16 -81.5t20 -97.5t23 -104.5t23 -103t21 -91.5t17 -70q2 -5 4 -7t9 -2q8 0 10 2t4 7q7 28 16 70t20 91.5t22 103t21.5 104.5t19.5 97.5t15 81.5q2 10 14 10h111q10 0 10 -10q-1 -11 -9.5 -49.5t-21.5 -94t-29.5 -123.5t-34 -137.5t-35 -136
t-32.5 -119.5q-2 -7 -6 -8.5t-11 -1.5h-179q-9 1 -12 10q-16 54 -33.5 120.5t-35 136.5t-34 137.5t-29 123t-21 93.5t-9.5 49q0 10 10 10h116z" />
    <glyph glyph-name="W" unicode="W" horiz-adv-x="882" 
d="M743 11q-4 -11 -15 -11h-182q-9 0 -12 11q-4 15 -9.5 46t-13 72t-16 88.5t-17 96t-16.5 94.5t-14 85q-1 8 -10 8q-10 0 -11 -8q-6 -39 -13 -85t-15 -94t-16 -95.5t-15 -88.5t-13 -72t-10 -47q-2 -11 -14 -11h-183q-10 0 -12 11q-7 39 -17.5 99t-22 129t-23 140t-21 131.5
t-16 104t-7.5 56.5q0 9 10 9h121q8 0 9 -10q3 -29 8 -73t11.5 -94.5t14 -104.5t14.5 -102.5t13.5 -88.5t10.5 -63q3 -12 14 -12q8 0 10.5 2.5t4.5 9.5q4 22 11 58.5t14.5 81.5t16 95t16 98.5t14.5 93.5t12 79q0 10 10 10h154q10 0 10 -10q5 -34 12 -78.5t15 -93t16.5 -98
t16.5 -94.5t15 -82t12 -60q2 -6 4 -9t10 -3t11 2.5t4 10.5q4 23 10 63t12.5 88.5t14 102t14 104t11.5 94.5t8 73q1 10 13 10h117q9 0 9 -10q-3 -19 -10 -64.5t-16.5 -106t-21 -130t-23 -136.5t-22 -125.5t-17.5 -96.5z" />
    <glyph glyph-name="X" unicode="X" horiz-adv-x="540" 
d="M267 261q-5 0 -8 -6q-12 -26 -28.5 -61t-32 -70t-29.5 -66t-22 -49q-1 -2 -3.5 -5.5t-6.5 -3.5h-121q-7 0 -7 11q4 11 15 33.5t25 52t30.5 63t32.5 65.5t30.5 60t24.5 47q5 9 6.5 14t1.5 10t-2 9.5t-7 14.5q-17 31 -41 75.5t-46.5 88t-40 79t-23.5 48.5q0 9 7 9h126
q7 0 11 -10l22.5 -50t28.5 -62.5t29.5 -63t25.5 -51.5q2 -6 10 -6q4 0 8 6q10 21 23.5 51.5t28 62.5t27 62t21.5 51q2 3 4 6.5t7 3.5h122q7 0 7 -10q-11 -23 -30 -61t-40 -79.5t-42.5 -81.5t-36.5 -68q-7 -12 -8 -16t-1 -9q0 -7 8 -23q10 -19 24 -47.5t30 -60.5t32.5 -65.5
t31 -62.5t25 -51.5t15.5 -33.5q0 -11 -7 -11h-125q-5 0 -9 3.5t-5 5.5q-8 19 -21 50.5t-28 66t-30.5 69t-28.5 60.5q-3 6 -10 6z" />
    <glyph glyph-name="Y" unicode="Y" horiz-adv-x="552" 
d="M408 669q7 11 17 11h117q9 0 6 -10q-15 -32 -38 -79.5t-48 -97.5t-49 -96t-40 -75q-20 -36 -27.5 -51t-7.5 -26v-235q0 -10 -10 -10h-113q-10 0 -10 10v236q0 6 -1.5 11.5t-4.5 13t-9 18.5t-15 28q-11 20 -26 50t-32 64.5t-34.5 71t-32.5 69l-27 58.5t-18 40q-3 10 7 10
h124q10 0 14 -11q11 -27 25.5 -62.5t29.5 -71.5t30.5 -70.5t27.5 -59.5q5 -11 7.5 -14t7.5 -3t8 3t8 14q12 24 27.5 57t31 69.5t30 72.5t25.5 65z" />
    <glyph glyph-name="Z" unicode="Z" horiz-adv-x="473" 
d="M40 0q-10 0 -10 10v93q0 5 2.5 12t10.5 21l239 405q4 8 5 12t1 8q0 10 -9 10h-212q-10 0 -10 10v89q0 10 10 10h365q10 0 10 -10v-97q0 -5 -2 -11.5t-10 -19.5l-241 -405q-2 -4 -3 -8t-1 -9q0 -6 1.5 -7.5t4.5 -1.5h239q10 0 10 -10v-91q0 -10 -11 -10h-389z" />
    <glyph glyph-name="bracketleft" unicode="[" horiz-adv-x="360" 
d="M81 743q0 10 10 10h206q10 0 10 -10v-70q0 -10 -10 -10h-101q-6 0 -6 -6v-724q0 -6 6 -6h101q10 0 10 -10v-70q0 -10 -10 -10h-206q-10 0 -10 10v896z" />
    <glyph glyph-name="backslash" unicode="\" horiz-adv-x="430" 
d="M405 -98q2 -11 -7 -11h-81q-6 0 -8 11l-282 816q-2 11 6 11h81q6 0 8 -11z" />
    <glyph glyph-name="bracketright" unicode="]" horiz-adv-x="360" 
d="M279 -153q0 -10 -10 -10h-206q-10 0 -10 10v70q0 10 10 10h101q6 0 6 6v724q0 6 -6 6h-101q-10 0 -10 10v70q0 10 10 10h206q10 0 10 -10v-896z" />
    <glyph glyph-name="asciicircum" unicode="^" 
d="M240 697h85l165 -434h-90q-32 86 -62.5 173t-53.5 177h-2q-26 -90 -56 -176.5t-60 -173.5h-89z" />
    <glyph glyph-name="underscore" unicode="_" horiz-adv-x="500" 
d="M500 -78v-50h-500v50h500z" />
    <glyph glyph-name="grave" unicode="`" horiz-adv-x="500" 
d="M247 604q-19 0 -26 2.5t-14 13.5l-117 177q-1 5 2 7.5t8 2.5h97q9 0 15 -10l82 -183q1 -5 -2 -7.5t-8 -2.5h-37z" />
    <glyph glyph-name="a" unicode="a" horiz-adv-x="538" 
d="M234 440q-27 0 -63.5 -3t-60.5 -7q-5 -1 -9.5 -0.5t-5.5 5.5l-7 77q-2 11 6 14q29 8 76.5 13.5t98.5 5.5q46 0 83 -8.5t63 -27t39.5 -49t13.5 -74.5v-363q0 -5 -2.5 -8.5t-10.5 -6.5q-13 -4 -32.5 -7.5t-42.5 -5.5t-48.5 -3.5t-51.5 -1.5q-68 0 -113 7t-72 24.5t-38 46
t-11 71.5q0 38 6 66.5t24 48t51.5 32t88.5 19.5l118 15q6 1 6 6v40q0 45 -24 59.5t-82 14.5zM340 232q0 6 -6 6h-67q-27 0 -45 -3t-29 -12.5t-15.5 -26t-4.5 -43.5t4 -42.5t15 -23.5t29.5 -10.5t48.5 -2.5q17 0 35 1.5t28 3.5q7 2 7 7v146z" />
    <glyph glyph-name="b" unicode="b" horiz-adv-x="582" 
d="M268 -10q-26 0 -54 1.5t-54 4t-47 6.5t-32 9q-9 4 -9 11v703q0 10 10 10h111q10 0 10 -10v-181q0 -8 8 -8q5 0 16 1t25 2.5t29.5 3t29.5 1.5q61 0 102 -15.5t66.5 -47.5t36.5 -81t11 -116q0 -74 -11.5 -129t-40.5 -91.5t-79 -55t-128 -18.5zM203 100q0 -3 1.5 -6t5.5 -4
q11 -2 27 -3.5t30 -1.5q40 0 64 9t37 31t17.5 58.5t4.5 91.5q0 53 -5.5 87t-19 53t-36.5 26t-57 7q-20 0 -37 -2.5t-25 -5.5q-7 -2 -7 -11v-329z" />
    <glyph glyph-name="c" unicode="c" horiz-adv-x="420" 
d="M388 4q-22 -7 -51.5 -10.5t-60.5 -3.5q-62 0 -104.5 18t-68.5 52.5t-38 86t-12 117.5q0 65 11.5 117t37.5 88.5t68.5 56t104.5 19.5q35 0 63.5 -4t45.5 -10q5 -2 5 -7l-4 -86q0 -7 -8 -4q-15 4 -36 7t-42 3q-31 0 -52 -8.5t-33.5 -29.5t-17.5 -56t-5 -87q0 -49 5 -81.5
t17.5 -52t33.5 -28t53 -8.5q20 0 40.5 2.5t35.5 6.5q3 1 6 1t4 -4l6 -86q1 -6 -4 -9z" />
    <glyph glyph-name="d" unicode="d" horiz-adv-x="582" 
d="M313 -10q-78 0 -128 15t-79 48.5t-40 87t-11 130.5q0 138 54 205.5t177 67.5q26 0 50.5 -3t34.5 -3q7 0 7 9v178q0 10 10 10h111q10 0 10 -10v-701q0 -4 -1.5 -7t-8.5 -6q-12 -5 -34 -9t-47.5 -6.5t-53 -4t-51.5 -1.5zM378 430q0 4 -1.5 8t-6.5 5q-23 5 -58 5
q-34 0 -57 -7t-37.5 -26.5t-20.5 -54.5t-6 -91q0 -55 4.5 -90.5t17.5 -56.5t37 -29t64 -8q12 0 28 1t27 4q9 3 9 10v330z" />
    <glyph glyph-name="e" unicode="e" horiz-adv-x="554" 
d="M183 316q0 -7 6 -7h185q6 0 8.5 4.5t2.5 24.5q0 57 -19 86.5t-76 29.5q-33 0 -54 -10.5t-33 -29t-16 -44t-4 -54.5zM481 19q-29 -14 -73.5 -21.5t-97.5 -7.5q-73 0 -122.5 19.5t-79.5 55.5t-42.5 87t-12.5 114q0 135 58 207t181 72q60 0 100 -16t64 -46t34 -73t10 -97
q0 -51 -4.5 -68t-22.5 -17h-282q-6 0 -6 -6q0 -40 9.5 -66t27.5 -41t45 -21t62 -6q38 0 78 7.5t63 15.5q8 0 11 -5l7 -78q0 -6 -7 -9z" />
    <glyph glyph-name="f" unicode="f" horiz-adv-x="345" 
d="M232 541q0 -6 6 -6h93q10 0 10 -10v-81q0 -10 -10 -10h-93q-6 0 -6 -6v-418q0 -10 -10 -10h-112q-10 0 -10 10v418q0 6 -6 6h-69q-10 0 -10 10v81q0 10 10 10h69q6 0 6 6v45q0 26 7 52.5t25.5 48t52.5 35t88 13.5q27 0 51 -3t34 -6q9 -2 7 -13l-6 -69q-2 -8 -12 -6
t-23.5 4t-28.5 2q-32 0 -47.5 -18t-15.5 -47v-38z" />
    <glyph glyph-name="g" unicode="g" horiz-adv-x="580" 
d="M507 12q0 -59 -17 -96.5t-48.5 -58.5t-76 -29t-99.5 -8q-17 0 -42.5 2t-52.5 5.5t-51 8t-38 10.5q-7 3 -7 8l12 78q2 7 9 6q14 -3 33.5 -6.5t40.5 -6.5t42 -5t39 -2q45 0 70 6t37.5 19.5t15.5 35t3 51.5q0 7 -6 7q-20 -2 -41 -3t-45 -1q-63 0 -107 11.5t-71.5 39
t-40 74.5t-12.5 119q0 71 13.5 122t44.5 83.5t80 47.5t120 15q21 0 47.5 -1t52.5 -3.5t49 -6.5t38 -10q5 -2 6.5 -4.5t1.5 -5.5v-502zM312 121q21 0 35.5 2t22.5 4q7 2 7 9v295q0 6 -6 9q-11 5 -27 6.5t-37 1.5q-35 0 -57.5 -6.5t-36 -24.5t-19 -50t-5.5 -84
q0 -51 4.5 -82.5t17.5 -49t37 -24t64 -6.5z" />
    <glyph glyph-name="h" unicode="h" horiz-adv-x="579" 
d="M73 725q0 10 10 10h110q10 0 10 -10v-184q0 -8 11 -8q26 5 56.5 8.5t53.5 3.5q52 0 87.5 -9t58 -30.5t32.5 -57.5t10 -91v-347q0 -10 -10 -10h-111q-10 0 -10 10v336q0 28 -4 47t-14.5 30.5t-28.5 16t-47 4.5q-23 0 -42 -1.5t-32 -4.5q-10 -3 -10 -10v-418q0 -10 -10 -10
h-110q-10 0 -10 10v715z" />
    <glyph glyph-name="i" unicode="i" horiz-adv-x="282" 
d="M85 0q-10 0 -10 10v515q0 10 10 10h111q10 0 10 -10v-515q0 -10 -10 -10h-111zM82 624q-10 0 -10 10v99q0 10 10 10h117q10 0 10 -10v-99q0 -10 -10 -10h-117z" />
    <glyph glyph-name="j" unicode="j" horiz-adv-x="282" 
d="M75 525q0 10 10 10h112q10 0 10 -10v-524q0 -53 -5.5 -89t-22.5 -58t-49 -31t-85 -9q-23 0 -45.5 2.5t-30.5 5.5q-10 3 -8 12l3 73q3 9 12 7t21.5 -3t23.5 -1q18 0 28.5 4t16.5 15.5t7.5 32.5t1.5 55v508zM82 624q-10 0 -10 10v99q0 10 10 10h118q10 0 10 -10v-99
q0 -10 -10 -10h-118z" />
    <glyph glyph-name="k" unicode="k" horiz-adv-x="539" 
d="M202 345q0 -9 18 -9q16 0 20 4q15 20 33 45.5t35.5 51t33 49t26.5 40.5q3 5 6 7t9 2h133q16 0 12 -9q-6 -9 -26 -35t-46 -59t-54.5 -67.5t-50.5 -61.5q-6 -6 -6 -12q0 -4 8 -14q16 -22 43.5 -61.5t55 -80.5t51 -76t31.5 -48q2 -4 1 -7.5t-12 -3.5h-127q-9 0 -14 8
q-12 22 -30.5 52t-38.5 62t-38.5 61.5t-31.5 49.5q-2 4 -9.5 7t-15.5 3q-11 0 -13.5 -2t-2.5 -7v-224q0 -10 -10 -10h-110q-10 0 -10 10v715q0 10 10 10h110q10 0 10 -10v-380z" />
    <glyph glyph-name="l" unicode="l" horiz-adv-x="295" 
d="M271 0q-17 -5 -35.5 -7.5t-41.5 -2.5q-63 0 -94 26t-31 96v612q0 11 10 11h111q10 0 10 -11v-594q0 -24 10 -33t32 -9h32q10 0 10 -10l-3 -66q0 -10 -10 -12z" />
    <glyph glyph-name="m" unicode="m" horiz-adv-x="880" 
d="M504 10q0 -10 -10 -10h-111q-10 0 -10 10v374q0 35 -22.5 47.5t-62.5 12.5q-20 0 -41.5 -1.5t-34.5 -4.5q-10 -3 -10 -11v-417q0 -10 -10 -10h-111q-10 0 -10 10v504q0 8 10 10q16 3 41 7t54.5 7t59.5 5t56 2q41 0 81 -5t64 -20q6 -2 13 1q42 14 84 19t77 5
q58 0 97 -12.5t63 -35.5t34 -57.5t10 -77.5v-352q0 -10 -10 -10h-112q-10 0 -10 10v343q0 51 -22.5 71t-72.5 20q-18 0 -38.5 -1.5t-34.5 -4.5q-11 -3 -11 -11v-417z" />
    <glyph glyph-name="n" unicode="n" horiz-adv-x="577" 
d="M390 0q-10 0 -10 10v338q0 28 -4 47t-14.5 29.5t-29.5 15t-49 4.5q-46 0 -71 -6q-10 -3 -10 -10v-418q0 -10 -10 -10h-111q-10 0 -10 10v504q0 8 10 10q20 3 46 7t54 7t55.5 5t51.5 2q66 0 109 -9.5t68.5 -31.5t35.5 -58.5t10 -91.5v-344q0 -10 -10 -10h-111z" />
    <glyph glyph-name="o" unicode="o" horiz-adv-x="582" 
d="M186 273q0 -55 8 -99.5t23 -61.5q10 -11 25.5 -16.5t47.5 -5.5q35 0 50.5 5.5t24.5 16.5q15 17 22.5 61.5t7.5 99.5q0 56 -7.5 95.5t-22.5 57.5q-9 11 -24.5 16t-48.5 5q-34 0 -49.5 -5t-25.5 -16q-15 -18 -23 -57.5t-8 -95.5zM528 272q0 -75 -17.5 -135.5t-46.5 -92.5
q-28 -29 -69.5 -41.5t-104.5 -12.5t-103 12.5t-67 41.5q-29 32 -48 92.5t-19 135.5q0 76 18.5 133t48.5 88q27 29 68.5 40.5t103.5 11.5q64 0 104 -11.5t68 -40.5q29 -32 46.5 -88.5t17.5 -132.5z" />
    <glyph glyph-name="p" unicode="p" horiz-adv-x="581" 
d="M267 545q78 0 128 -15t79 -47t40 -83.5t11 -124.5q0 -71 -12.5 -123t-42 -85.5t-77 -50t-116.5 -16.5q-17 0 -37.5 1t-29.5 1q-8 0 -8 -8v-164q0 -10 -10 -10h-111q-10 0 -10 10v683q0 7 11 11q14 5 36 9t47 6.5t51.5 4t50.5 1.5zM202 106q0 -9 8 -10q14 -3 29 -3.5
t29 -0.5q34 0 57 7.5t37 27.5t20.5 55.5t6.5 91.5q0 54 -5.5 87.5t-19.5 53t-38 26.5t-60 7q-19 0 -32 -1.5t-24 -3.5q-5 -1 -6.5 -4.5t-1.5 -7.5v-325z" />
    <glyph glyph-name="q" unicode="q" horiz-adv-x="582" 
d="M308 91q18 0 34.5 2.5t27.5 6.5q8 3 8 17v312q0 5 -1.5 8t-6.5 5q-11 4 -26 5t-34 1q-34 0 -57 -9t-36.5 -30t-19.5 -55t-6 -83q0 -48 4.5 -82.5t17.5 -56t36 -31.5t59 -10zM323 545q22 0 47.5 -1.5t50 -4t45 -6.5t32.5 -8q11 -4 11 -10v-685q0 -10 -10 -10h-111
q-10 0 -10 10v167q0 9 -6 9q-11 0 -30.5 -3t-54.5 -3q-66 0 -110.5 15.5t-71.5 48t-38.5 83t-11.5 121.5q0 65 12.5 116.5t43 87t82.5 54.5t130 19z" />
    <glyph glyph-name="r" unicode="r" horiz-adv-x="358" 
d="M344 436q-36 6 -77 6q-12 0 -29 -1.5t-29 -6.5q-7 -4 -7 -11v-413q0 -12 -11 -10h-110q-10 0 -10 10v504q0 8 10 10q38 8 89 14.5t99 6.5q25 0 43 -1t38 -3q6 -1 6 -8l-5 -92q0 -6 -7 -5z" />
    <glyph glyph-name="s" unicode="s" horiz-adv-x="420" 
d="M45 1q-6 2 -6 8l5 87q0 6 8 4q25 -5 57 -8t57 -3q27 0 43 2t24.5 8t11.5 17t3 30q0 11 -4 20.5t-14.5 20t-29 24.5t-48.5 34t-51 36.5t-34 33t-18.5 35.5t-5.5 44q0 85 46 118t144 33q36 0 73.5 -3t60.5 -8q5 -2 5 -7l-6 -89q0 -2 -2 -3.5t-5 -0.5q-23 4 -51.5 7t-50.5 3
q-47 0 -65.5 -7.5t-18.5 -39.5q0 -13 4 -22.5t14.5 -19.5t29 -22.5t48.5 -30.5q33 -21 54.5 -39t34.5 -36t18 -37.5t5 -42.5q0 -48 -13 -78.5t-37.5 -48t-61 -24t-82.5 -6.5q-42 0 -80 3t-62 8z" />
    <glyph glyph-name="t" unicode="t" horiz-adv-x="346" 
d="M303 -1q-17 -4 -38.5 -6.5t-42.5 -2.5q-121 0 -121 110v328q0 6 -6 6h-69q-10 0 -10 10v81q0 10 10 10h69q6 0 6 6v125q0 10 10 10h111q10 0 10 -10v-125q0 -6 6 -6h84q10 0 10 -10v-81q0 -10 -10 -10h-84q-6 0 -6 -6v-297q0 -25 9.5 -33.5t33.5 -8.5h31q10 0 10 -10
l-3 -67q0 -11 -10 -13z" />
    <glyph glyph-name="u" unicode="u" horiz-adv-x="577" 
d="M187 535q10 0 10 -10v-332q0 -29 4.5 -48t15.5 -30t31 -16t50 -5q39 0 68 6q9 3 9 10v415q0 10 10 10h110q10 0 10 -10v-504q0 -8 -10 -10q-41 -8 -96.5 -14.5t-102.5 -6.5q-66 0 -110 10t-71 32.5t-38 59.5t-11 92v341q0 10 10 10h111z" />
    <glyph glyph-name="v" unicode="v" horiz-adv-x="508" 
d="M354 8q-2 -5 -4 -6.5t-8 -1.5h-179q-4 0 -6.5 3t-3.5 5q-10 31 -23 77t-27.5 97.5t-29 105t-26.5 100.5t-21 83.5t-12 54.5q0 9 9 9h120q7 0 9 -9q9 -48 20.5 -104t24 -112t24.5 -107t22 -89q1 -6 13 -6q13 0 14 6q10 38 22.5 89t25 107t24 112t20.5 104q1 9 13 9h110
q8 0 8 -10q-3 -18 -12 -54.5t-21 -84t-26.5 -101t-29 -105t-27.5 -97t-23 -75.5z" />
    <glyph glyph-name="w" unicode="w" horiz-adv-x="868" 
d="M721 8q-3 -8 -11 -8h-176q-6 0 -8 8q-8 35 -18 83t-21 101.5t-22 108.5t-20 104q-1 6 -10 6q-10 0 -11 -6q-9 -49 -21 -104.5t-24 -109t-23.5 -101.5t-19.5 -82q-2 -8 -11 -8h-180q-5 0 -7 8q-7 29 -18 74t-23 96.5t-24.5 106.5t-23 102.5t-18.5 84.5t-11 54q0 9 7 9h126
q7 0 7 -9q7 -48 17 -104t20.5 -112t20 -106.5t17.5 -87.5q1 -6 12 -6t12 6q8 37 18.5 87.5t21.5 106.5t21.5 112t18.5 104q3 9 10 9h171q6 0 8 -9q8 -48 18.5 -104t21.5 -112t21.5 -106.5t18.5 -87.5q1 -6 12 -6q10 0 12 6q8 37 19 87.5t22.5 106.5t22 112t18.5 104
q3 9 10 9h118q6 0 6 -10q-3 -16 -11.5 -52.5t-20 -84t-25 -102t-26.5 -106.5t-24.5 -97t-19.5 -75z" />
    <glyph glyph-name="x" unicode="x" horiz-adv-x="531" 
d="M261 193q-8 0 -11 -5q-8 -13 -21.5 -37.5t-28.5 -51.5t-29 -52.5t-22 -39.5q-1 -2 -3.5 -4.5t-6.5 -2.5h-122q-4 0 -6.5 2t-0.5 7q6 12 26 44t43.5 70t46.5 74.5t37 57.5q9 14 9 23q0 4 -3 10t-6 11q-15 23 -36 57.5t-41.5 68.5t-37 62t-22.5 39q-2 4 0.5 6.5t6.5 2.5
h128q6 0 10 -8q7 -16 18.5 -39t24 -47.5t24.5 -47.5t21 -39q2 -5 9 -5q6 0 9 5q9 16 21.5 39t25 47.5t23.5 47.5t17 39q3 8 13 8h123q4 0 6.5 -2.5t0.5 -6.5q-9 -18 -26.5 -47t-37.5 -61.5t-40 -64t-34 -53.5q-9 -15 -9 -21q0 -7 8 -20q9 -13 22.5 -34.5t29 -46.5
t31.5 -51.5t30.5 -50t25 -41.5t14.5 -26q2 -5 -0.5 -7t-6.5 -2h-123q-5 0 -8.5 2.5t-4.5 4.5q-6 12 -20 36t-29.5 51.5t-31 53t-25.5 40.5q-3 5 -11 5z" />
    <glyph glyph-name="y" unicode="y" horiz-adv-x="503" 
d="M224 12q0 5 -13 5h-29q-16 0 -25 6t-12 15q-11 32 -24 76t-26.5 92.5t-26.5 98.5t-24.5 93.5t-19 77.5t-10.5 50q0 9 9 9h121q7 0 9 -9q9 -47 20 -102t23 -110t23.5 -106t21.5 -90q1 -6 13 -6q13 0 15 7l6 20q10 40 21 89.5t22 101.5t21 102.5t18 93.5q1 9 14 9h109
q8 0 8 -10q-3 -17 -12.5 -55t-22 -87t-27.5 -105t-29.5 -108t-27.5 -96t-22 -70q-19 -55 -40 -90.5t-48 -56.5t-62 -29t-82 -8q-17 0 -30 1t-20 3q-10 2 -10 12l-3 64q0 8 2.5 10t9.5 2q37 0 61 2.5t40.5 11t28 23.5t22.5 39q5 11 6.5 15.5t1.5 8.5z" />
    <glyph glyph-name="z" unicode="z" horiz-adv-x="462" 
d="M46 0q-10 0 -10 10v86q0 11 13 28l218 281q5 7 6 11t1 9q0 6 -2.5 7.5t-8.5 1.5h-203q-10 0 -10 10v81q0 10 10 10h349q11 0 11 -11v-79q0 -7 -2 -17t-7 -17l-223 -284q-3 -4 -3.5 -7.5t-0.5 -8.5q0 -8 8 -8h227q10 0 10 -10v-83q0 -10 -10 -10h-373z" />
    <glyph glyph-name="braceleft" unicode="{" horiz-adv-x="360" 
d="M156 295q0 -4 6 -8q17 -12 26.5 -30t9.5 -50q0 -23 -1.5 -54t-4 -62t-4 -57t-1.5 -39q0 -24 5.5 -37.5t18.5 -20t33.5 -8.5t50.5 -2q11 0 11 -10v-70q0 -10 -11 -10q-53 0 -92.5 6t-66 20.5t-40 39t-13.5 62.5q0 15 2.5 48t5.5 69.5t5.5 70.5t2.5 52q0 26 -16.5 37
t-43.5 11q-11 0 -11 10v64q0 10 11 10q27 0 43.5 11t16.5 37q0 18 -2.5 52t-5.5 70.5t-5.5 69.5t-2.5 48q0 38 13.5 62.5t40 39t66 20.5t92.5 6q11 0 11 -10v-70q0 -10 -11 -10q-30 0 -50.5 -2t-33.5 -8.5t-18.5 -20t-5.5 -37.5q0 -13 1.5 -39t4 -57t4 -62.5t1.5 -53.5
q0 -32 -9.5 -50t-26.5 -30q-3 -2 -4.5 -3.5t-1.5 -4.5z" />
    <glyph glyph-name="bar" unicode="|" horiz-adv-x="280" 
d="M98 786h84v-1000h-84v1000z" />
    <glyph glyph-name="braceright" unicode="}" horiz-adv-x="360" 
d="M204 295q0 3 -1.5 4.5t-4.5 3.5q-17 12 -26.5 30t-9.5 50q0 22 1.5 53.5t4 62.5t4 57t1.5 39q0 24 -5.5 37.5t-18.5 20t-33.5 8.5t-50.5 2q-11 0 -11 10v70q0 10 11 10q52 0 92 -6t66.5 -20.5t40 -39t13.5 -62.5q0 -15 -2.5 -48t-5.5 -69.5t-5.5 -70.5t-2.5 -52
q0 -26 16.5 -37t43.5 -11q11 0 11 -10v-64q0 -10 -11 -10q-27 0 -43.5 -11t-16.5 -37q0 -18 2.5 -52t5.5 -70.5t5.5 -69.5t2.5 -48q0 -38 -13.5 -62.5t-40 -39t-66.5 -20.5t-92 -6q-11 0 -11 10v70q0 10 11 10q30 0 50.5 2t33.5 8.5t18.5 20t5.5 37.5q0 13 -1.5 39t-4 57
t-4 62t-1.5 54q0 32 9.5 50t26.5 30q6 4 6 8z" />
    <glyph glyph-name="asciitilde" unicode="~" 
d="M303 322q27 -17 44.5 -25.5t34.5 -8.5t30 12t23 47q4 12 11 12l66 -16q7 -2 7 -10q-1 -20 -10.5 -45t-26.5 -46.5t-43 -36.5t-60 -15q-29 0 -56 10t-64 34q-29 19 -44.5 26t-31.5 7q-17 0 -31.5 -11t-23.5 -46q-3 -13 -10 -13l-63 17q-6 1 -6 8q0 17 8 41.5t24.5 47.5
t41.5 39.5t59 16.5q16 0 29 -2.5t27 -7.5t29.5 -13.5t35.5 -21.5z" />
    <glyph glyph-name="uni00A0" unicode="&#xa0;" horiz-adv-x="200" 
 />
    <glyph glyph-name="exclamdown" unicode="&#xa1;" horiz-adv-x="295" 
d="M192 301q10 0 10 -10l23 -426q0 -10 -10 -10h-136q-10 0 -10 10l23 426q0 10 10 10h90zM213 535q10 0 10 -10v-120q0 -10 -10 -10h-124q-10 0 -10 10v120q0 10 10 10h124z" />
    <glyph glyph-name="cent" unicode="&#xa2;" 
d="M351 -87q0 -10 -10 -10h-66q-10 0 -10 10v73q0 7 -5 8q-47 7 -79 28t-51.5 55t-28 81t-8.5 106q0 58 8.5 105.5t28 83t52 58t79.5 30.5q4 1 4 6v81q0 10 10 10h66q10 0 10 -10v-79q0 -5 5 -6q23 -2 39.5 -5t28.5 -7q4 -1 4 -7l-5 -87q0 -2 -1.5 -4t-4.5 0q-16 5 -36.5 8
t-41.5 3q-31 0 -52 -8.5t-33.5 -29.5t-18 -56t-5.5 -87q0 -49 5 -81.5t18 -52t34 -28t53 -8.5q20 0 40.5 2.5t35.5 6.5q3 1 6.5 1t3.5 -4l5 -86q2 -7 -3 -9q-30 -9 -72 -12q-5 0 -5 -6v-73z" />
    <glyph glyph-name="sterling" unicode="&#xa3;" 
d="M69 0q-10 0 -10 10v83q0 8 10 11q43 20 58 72t15 128q0 10 -3 12t-12 2h-61q-10 0 -10 10v64q0 10 10 10h61q8 0 11 3.5t3 18.5q0 69 10 119.5t33 83t61.5 48t95.5 15.5q38 0 76 -4t65 -12q5 -1 5 -9l-8 -92q0 -7 -8 -5q-25 5 -51 7.5t-57 2.5t-49.5 -9.5t-28 -28.5
t-12.5 -48t-3 -68q0 -16 1.5 -19t6.5 -3h162q10 0 10 -10v-64q0 -10 -10 -10h-166q-8 0 -8 -10q0 -38 -3.5 -65t-9 -47t-13.5 -34.5t-17 -27.5q-8 -11 -8 -16t1.5 -6t6.5 -1h278q10 0 10 -10v-91q0 -10 -10 -10h-432z" />
    <glyph glyph-name="currency" unicode="&#xa4;" 
d="M261 433q-35 0 -58 -23t-23 -58t23 -58.5t58 -23.5q33 0 56 23t23 58t-23 58.5t-56 23.5zM260 513q21 0 40.5 -4.5t36.5 -12.5l63 63l65 -66l-62 -63q9 -17 14.5 -36.5t5.5 -41.5q0 -41 -19 -77l61 -62l-67 -67l-61 62q-35 -18 -76 -18q-43 0 -78 19l-63 -63l-67 66
l63 63q-18 34 -18 77t18 76l-63 63l68 68l63 -63q32 17 76 17z" />
    <glyph glyph-name="yen" unicode="&#xa5;" 
d="M351 343q0 -6 6 -6h128q10 0 10 -10v-55q0 -10 -10 -10h-136q-6 0 -6 -6v-52q0 -4 6 -4h136q10 0 10 -10v-55q0 -10 -10 -10h-136q-6 0 -6 -5v-110q0 -10 -10 -10h-104q-10 0 -10 10v109q0 6 -6 6h-137q-10 0 -10 10v55q0 10 10 10h137q5 0 6 5v51q0 6 -6 6h-137
q-10 0 -10 10v55q0 10 10 10h129q6 0 6 6q0 2 -0.5 4t-3.5 6.5t-8.5 13t-14.5 23.5q-19 30 -43 70t-47.5 79.5t-43.5 74.5t-31 56q-2 5 0 7.5t7 2.5h115q8 0 14 -11q26 -53 56 -109t56 -106q5 -10 9.5 -13.5t9.5 -3.5t10.5 3.5t10.5 13.5q26 48 56 104t57 111q5 11 17 11
h108q7 0 4 -10q-18 -32 -39.5 -67.5t-43.5 -71.5t-44 -71t-41 -65q-11 -16 -17 -25.5t-9 -15t-3.5 -8t-0.5 -3.5z" />
    <glyph glyph-name="brokenbar" unicode="&#xa6;" horiz-adv-x="273" 
d="M94 786h84v-387h-84v387zM94 173h84v-387h-84v387z" />
    <glyph glyph-name="section" unicode="&#xa7;" horiz-adv-x="560" 
d="M385 201q0 20 -4 35.5t-18 33t-41.5 39t-74.5 52.5q-2 1 -5.5 2.5t-6.5 1.5q-5 0 -8 -1.5t-6 -3.5q-19 -16 -33.5 -36.5t-14.5 -52.5q0 -18 4.5 -31.5t18 -28t38 -32.5t63.5 -45q15 -11 24 -15t15 -4q5 0 11 5q19 16 28.5 40t9.5 41zM98 535q0 47 16.5 77t45 47.5
t67.5 24t84 6.5q51 0 95 -5.5t63 -12.5q5 -2 5 -10l-7 -79q0 -10 -9 -7q-22 5 -59 8.5t-76 3.5q-27 0 -44.5 -2t-27.5 -8t-13.5 -15.5t-3.5 -24.5q0 -14 6 -25.5t19.5 -24t36 -28t55.5 -36.5q45 -29 74.5 -53.5t46.5 -49.5t24 -51.5t7 -58.5q0 -92 -85 -150q-4 -3 -4 -8
t4 -9q21 -23 30 -44t9 -49q0 -50 -16 -83.5t-44.5 -53t-67 -27.5t-83.5 -8q-23 0 -46.5 1t-45.5 2.5t-40.5 3.5t-31.5 5q-6 2 -7.5 4.5t-1.5 5.5l5 83q1 11 12 9q33 -5 69.5 -7.5t78.5 -3.5q39 0 61 11t22 43q0 17 -4.5 30t-19 27t-40.5 32.5t-68 45.5q-38 25 -63.5 47
t-41 43.5t-22 45t-6.5 50.5q0 53 24 87t65 65q9 7 9 12q0 4 -2 6l-11 11q-18 19 -30.5 42.5t-12.5 54.5z" />
    <glyph glyph-name="dieresis" unicode="&#xa8;" horiz-adv-x="500" 
d="M102 630q-10 0 -10 10v87q0 10 10 10h92q10 0 10 -10v-87q0 -10 -10 -10h-92zM306 630q-10 0 -10 10v87q0 10 10 10h93q10 0 10 -10v-87q0 -10 -10 -10h-93z" />
    <glyph glyph-name="copyright" unicode="&#xa9;" horiz-adv-x="840" 
d="M107 333q0 105 22 173.5t63 108.5t99.5 56t132.5 16q72 0 129.5 -16.5t97 -55.5t61 -104.5t21.5 -163.5q0 -108 -23.5 -178t-64.5 -110.5t-98 -56.5t-124 -16q-69 0 -127 16t-100 55.5t-65.5 106.5t-23.5 169zM686 341q0 96 -22 155.5t-58.5 92.5t-84 44.5t-98.5 11.5
q-59 0 -108 -13t-85 -46.5t-56 -92.5t-20 -152q0 -98 23 -159t60.5 -94.5t86 -45.5t99.5 -12q54 0 102 12t84 45.5t56.5 94.5t20.5 159zM542 129q-41 -11 -98 -11q-106 0 -152.5 56t-46.5 161q0 51 11 92.5t35 71t61.5 45.5t90.5 16q32 0 57 -3t39 -8q4 -1 4 -6l-4 -75
q0 -2 -3 -3t-5 0q-30 8 -73 8q-25 0 -43 -6.5t-30 -22t-17.5 -42.5t-5.5 -68q0 -38 6 -62.5t18 -38.5t30 -19.5t43 -5.5q17 0 39 2.5t36 5.5q7 2 7 -3l5 -78q0 -5 -4 -6z" />
    <glyph glyph-name="ordfeminine" unicode="&#xaa;" horiz-adv-x="389" 
d="M77 666q20 6 51.5 10t64.5 4q78 0 114 -25.5t36 -88.5v-249q0 -6 -12.5 -10.5t-32.5 -8t-44.5 -5t-48.5 -1.5q-37 0 -67 3.5t-51 14.5t-32 30.5t-11 52.5q0 58 20.5 84t67.5 33l99 14q13 2 13 7v25q0 26 -13.5 34.5t-54.5 8.5q-21 0 -44.5 -2.5t-41.5 -5.5
q-4 -1 -7.5 -0.5t-4.5 3.5l-5 62q0 3 0.5 6t3.5 4zM246 456q0 5 -5 5h-43q-35 0 -49 -9.5t-14 -44.5q0 -16 2.5 -26t10 -15t21.5 -7t36 -2q14 0 27.5 1.5t13.5 6.5v91z" />
    <glyph glyph-name="guillemotleft" unicode="&#xab;" horiz-adv-x="532" 
d="M62 319q0 10 9 19l182 168q4 4 8 4q7 0 7 -10v-64q0 -15 -6.5 -24.5t-17.5 -21.5l-98 -108q-3 -5 -3 -10q0 -7 3 -11l111 -122q7 -8 9 -12t2 -13v-71q0 -10 -7 -10q-4 0 -8 4l-182 168q-9 9 -9 18v96zM264 319q0 10 9 19l182 168q4 4 8 4q7 0 7 -10v-64q0 -15 -6.5 -24.5
t-17.5 -21.5l-98 -108q-3 -5 -3 -10q0 -7 3 -11l111 -122q7 -8 9 -12t2 -13v-71q0 -10 -7 -10q-4 0 -8 4l-182 168q-9 9 -9 18v96z" />
    <glyph glyph-name="logicalnot" unicode="&#xac;" 
d="M72 351q-11 0 -11 11v76q0 11 11 11h423q11 0 11 -11v-268q0 -11 -11 -11h-80q-9 0 -9 11v174q0 7 -7 7h-327z" />
    <glyph glyph-name="uni00AD" unicode="&#xad;" horiz-adv-x="366" 
d="M60 248q-10 0 -10 10v85q0 10 10 10h246q10 0 10 -10v-85q0 -10 -10 -10h-246z" />
    <glyph glyph-name="registered" unicode="&#xae;" horiz-adv-x="446" 
d="M57 507q0 56 12 92.5t33.5 57.5t53 29.5t70.5 8.5t69.5 -8.5t51.5 -29.5t32.5 -56t11.5 -87q0 -57 -12.5 -94t-34 -58.5t-52 -30t-66.5 -8.5q-38 0 -69 8.5t-53 29.5t-34.5 56.5t-12.5 89.5zM354 512q0 46 -9.5 75.5t-26 46.5t-40.5 23.5t-52 6.5q-33 0 -57.5 -7
t-41.5 -24t-25.5 -46.5t-8.5 -74.5q0 -48 10 -78.5t27.5 -48t42 -24t53.5 -6.5q30 0 53.5 6.5t40 24t25.5 48t9 78.5zM233 463l-6 13q-2 2 -4 2h-22q-2 0 -2 -4v-71q0 -5 -6 -5h-41q-5 0 -5 5v217q0 5 4 5h61q48 0 71 -12t23 -50q0 -24 -6 -37t-22 -25q-4 -3 -4 -5v-1
l47 -91v-3q0 -3 -4 -3h-48q-5 0 -6 5zM222 515q17 0 23.5 11.5t6.5 26.5q0 20 -6.5 26.5t-23.5 6.5h-21q-3 0 -3 -4v-63q0 -4 3 -4h21z" />
    <glyph glyph-name="macron" unicode="&#xaf;" horiz-adv-x="500" 
d="M114 636q-10 0 -10 10v72q0 10 10 10h273q10 0 10 -10v-72q0 -10 -10 -10h-273z" />
    <glyph glyph-name="degree" unicode="&#xb0;" horiz-adv-x="389" 
d="M197 720q31 0 59 -12.5t49 -34t33 -50t12 -59.5q0 -33 -12 -61.5t-33 -49.5t-49.5 -33t-60.5 -12q-33 0 -61.5 12t-49.5 33.5t-33 50t-12 61.5q0 32 12.5 60.5t33.5 49.5t50 33t62 12zM193 651q-35 0 -58.5 -25.5t-23.5 -61.5q0 -37 23.5 -62t60.5 -25q36 0 60 25t24 62
t-24 62t-62 25z" />
    <glyph glyph-name="plusminus" unicode="&#xb1;" 
d="M231 597q0 11 11 11h84q11 0 11 -11v-159q0 -7 6 -7h149q11 0 11 -11v-75q0 -11 -11 -11h-149q-6 0 -6 -7v-158q0 -11 -11 -11h-84q-11 0 -11 11v158q0 7 -7 7h-150q-11 0 -11 11v75q0 11 11 11h150q7 0 7 7v159zM74 13q-11 0 -11 11v76q0 11 11 11h418q11 0 11 -11v-76
q0 -11 -11 -11h-418z" />
    <glyph glyph-name="uni00B2" unicode="&#xb2;" horiz-adv-x="365" 
d="M38 488q0 22 3 39.5t11.5 33.5t24 32t39.5 35q32 21 51.5 35.5t30.5 27t14.5 24.5t3.5 28q0 22 -16 28.5t-47 6.5q-9 0 -21.5 -1t-25.5 -2.5t-25 -3.5t-20 -4q-7 0 -7 7l-5 64q0 5 0.5 6.5t5.5 3.5q7 2 20.5 4.5t30 5t34.5 4t34 1.5q33 0 61 -4t48.5 -15.5t31.5 -33
t11 -55.5q0 -41 -13 -68t-50 -55q-39 -30 -62 -46.5t-35 -27.5t-16 -19.5t-4 -22.5q0 -7 7 -7h165q7 0 7 -6v-69q0 -6 -7 -6h-271q-9 0 -9 6v54z" />
    <glyph glyph-name="uni00B3" unicode="&#xb3;" horiz-adv-x="365" 
d="M197 682q-3 -2 -3 -5q0 -4 3 -4q69 -1 98.5 -30.5t29.5 -84.5q0 -42 -13 -68.5t-36.5 -41.5t-55.5 -20.5t-70 -5.5q-23 0 -50.5 3t-54.5 8q-6 0 -6 6l6 66q0 6 6 6q19 -4 44 -6t40 -2q43 0 62.5 10.5t19.5 50.5q0 15 -5.5 25t-18.5 16t-35 8.5t-55 2.5h-27q-7 0 -7 4v50
q0 5 7 11q52 35 83.5 61.5t31.5 31.5q0 3 -4 3h-140q-5 0 -5 6v67q0 6 6 6h262q7 0 7 -4v-69q0 -2 -1.5 -5t-6.5 -8q-20 -19 -47 -40.5t-65 -47.5z" />
    <glyph glyph-name="acute" unicode="&#xb4;" horiz-adv-x="500" 
d="M217 604q-10 0 -10 10l81 183q6 10 15 10h97q5 0 8 -2.5t2 -7.5l-118 -177q-7 -11 -14.5 -13.5t-25.5 -2.5h-35z" />
    <glyph glyph-name="mu" unicode="&#xb5;" horiz-adv-x="603" 
d="M397 49q-8 -10 -18 -19t-25 -15.5t-37 -10.5t-54 -4q-13 0 -26.5 1t-27.5 1q-7 0 -7 -9v-163q0 -10 -10 -10h-111q-10 0 -10 10v695q0 10 10 10h111q10 0 10 -10v-398q0 -11 2 -14t16 -5q7 -1 23 -2.5t39 -1.5q53 0 75.5 19.5t22.5 72.5v329q0 10 10 10h111q10 0 10 -10
v-386q0 -29 7.5 -39.5t29.5 -10.5h18q10 0 10 -12l-3 -65q0 -11 -20 -15q-14 -3 -24.5 -4.5t-22.5 -1.5q-42 0 -61 13.5t-29 44.5q-2 8 -3.5 10t-3.5 2q-3 0 -12 -12z" />
    <glyph glyph-name="paragraph" unicode="&#xb6;" horiz-adv-x="560" 
d="M240 204q-43 0 -78.5 8.5t-61 34t-39.5 72t-14 123.5q0 78 13.5 127t49.5 76.5t98.5 37t159.5 9.5h126q10 0 10 -10v-849q0 -10 -10 -10h-54q-10 0 -10 10v795q0 6 -6 6h-84q-6 0 -6 -6v-795q0 -10 -10 -10h-54q-10 0 -10 10v360q0 11 -20 11z" />
    <glyph glyph-name="periodcentered" unicode="&#xb7;" horiz-adv-x="281" 
d="M79 229q-10 0 -10 10v125q0 10 10 10h124q10 0 10 -10v-125q0 -10 -10 -10h-124z" />
    <glyph glyph-name="cedilla" unicode="&#xb8;" horiz-adv-x="500" 
d="M254 -16q-2 -8 -4.5 -19.5t-2.5 -18.5q0 -6 2.5 -7.5t8.5 -1.5q46 0 69.5 -16t23.5 -61q0 -57 -40.5 -79t-121.5 -22q-16 0 -26 2t-11 9l-5 38q0 6 2.5 7.5t8.5 1.5h33q33 0 49.5 8.5t16.5 31.5q0 20 -11.5 27.5t-46.5 7.5h-23q-7 0 -7 6l23 137h74z" />
    <glyph glyph-name="uni00B9" unicode="&#xb9;" horiz-adv-x="365" 
d="M139 855q3 1 6.5 1h6.5h82q6 0 6 -6v-335q0 -4 4 -4h69q6 0 6 -6v-71q0 -6 -6 -6h-255q-6 0 -6 6v71q0 6 6 6h80q4 0 4 4v255q-3 3 -4 3l-86 -19q-7 0 -7 6v69q0 5 7 7z" />
    <glyph glyph-name="ordmasculine" unicode="&#xba;" horiz-adv-x="419" 
d="M274 487q0 37 -4 59.5t-11.5 35.5t-20 17.5t-28.5 4.5q-19 0 -31.5 -4.5t-20.5 -17.5t-11.5 -36t-3.5 -59q0 -38 4 -61.5t12.5 -36.5t21 -17.5t29.5 -4.5t29.5 4.5t20 17.5t11 36.5t3.5 61.5zM40 483q0 55 11 93t32.5 61t53.5 33t73 10q82 0 125 -43t43 -146
q0 -59 -12 -98t-34 -61.5t-53 -31.5t-69 -9q-39 0 -70 9t-53.5 31t-34.5 59t-12 93z" />
    <glyph glyph-name="guillemotright" unicode="&#xbb;" horiz-adv-x="532" 
d="M470 223q0 -5 -3 -9.5t-7 -8.5l-182 -168q-4 -4 -8 -4q-6 0 -6 10v63q0 8 1 14.5t5 13.5l115 127q3 4 3 10q0 5 -3 10l-111 122q-7 7 -8.5 12t-1.5 14v71q0 10 6 10q4 0 8 -4l182 -168q4 -4 7 -8.5t3 -10.5v-96zM268 223q0 -5 -3 -9.5t-7 -8.5l-182 -168q-4 -4 -8 -4
q-6 0 -6 10v63q0 8 1 14.5t5 13.5l115 127q3 4 3 10q0 5 -3 10l-111 122q-7 7 -8.5 12t-1.5 14v71q0 10 6 10q4 0 8 -4l182 -168q4 -4 7 -8.5t3 -10.5v-96z" />
    <glyph glyph-name="onequarter" unicode="&#xbc;" horiz-adv-x="910" 
d="M546 691q4 10 10 10h72q8 0 6 -10l-288 -731q-4 -10 -10 -10h-70q-8 0 -6 10zM140 679q3 1 6.5 1h6.5h82q6 0 6 -6v-335q0 -4 4 -4h69q6 0 6 -6v-71q0 -6 -6 -6h-255q-6 0 -6 6v71q0 6 6 6h80q4 0 4 4v255q-3 3 -4 3l-86 -19q-7 0 -7 6v69q0 5 7 7zM566 152q0 9 1.5 18.5
t11.5 35.5t31 76t60 140q2 6 8 6h81q7 0 7 -7q-58 -123 -84 -183t-26 -70q0 -5 5 -5h82q4 0 4 4v116q0 7 6 7h82q6 0 6 -7v-116q0 -4 4 -4h37q6 0 6 -7v-67q0 -6 -6 -6h-37q-4 0 -4 -4v-73q0 -6 -6 -6h-82q-6 0 -6 6v73q0 4 -4 4h-171q-6 0 -6 6v63z" />
    <glyph glyph-name="onehalf" unicode="&#xbd;" horiz-adv-x="910" 
d="M546 691q4 10 10 10h72q8 0 6 -10l-288 -731q-4 -10 -10 -10h-70q-8 0 -6 10zM140 679q3 1 6.5 1h6.5h82q6 0 6 -6v-335q0 -4 4 -4h69q6 0 6 -6v-71q0 -6 -6 -6h-255q-6 0 -6 6v71q0 6 6 6h80q4 0 4 4v255q-3 3 -4 3l-86 -19q-7 0 -7 6v69q0 5 7 7zM583 60q0 22 3 39.5
t11.5 33.5t24 32t39.5 35q32 21 51.5 35.5t30.5 27t14.5 24.5t3.5 28q0 22 -16 28.5t-47 6.5q-9 0 -21.5 -1t-25.5 -2.5t-25 -3.5t-20 -4q-7 0 -7 7l-5 64q0 5 0.5 6.5t5.5 3.5q7 2 20.5 4.5t30 5t34.5 4t34 1.5q33 0 61 -4t48.5 -15.5t31.5 -33t11 -55.5q0 -41 -13 -68
t-50 -55q-39 -30 -62 -46.5t-35 -27.5t-16 -19.5t-4 -22.5q0 -7 7 -7h165q7 0 7 -6v-69q0 -6 -7 -6h-271q-9 0 -9 6v54z" />
    <glyph glyph-name="threequarters" unicode="&#xbe;" horiz-adv-x="910" 
d="M546 691q4 10 10 10h72q8 0 6 -10l-288 -731q-4 -10 -10 -10h-70q-8 0 -6 10zM566 152q0 9 1.5 18.5t11.5 35.5t31 76t60 140q2 6 8 6h81q7 0 7 -7q-58 -123 -84 -183t-26 -70q0 -5 5 -5h82q4 0 4 4v116q0 7 6 7h82q6 0 6 -7v-116q0 -4 4 -4h37q6 0 6 -7v-67q0 -6 -6 -6
h-37q-4 0 -4 -4v-73q0 -6 -6 -6h-82q-6 0 -6 6v73q0 4 -4 4h-171q-6 0 -6 6v63zM198 506q-3 -2 -3 -5q0 -4 3 -4q69 -1 98.5 -30.5t29.5 -84.5q0 -42 -13 -68.5t-36.5 -41.5t-55.5 -20.5t-70 -5.5q-23 0 -50.5 3t-54.5 8q-6 0 -6 6l6 66q0 6 6 6q19 -4 44 -6t40 -2
q43 0 62.5 10.5t19.5 50.5q0 15 -5.5 25t-18.5 16t-35 8.5t-55 2.5h-27q-7 0 -7 4v50q0 5 7 11q52 35 83.5 61.5t31.5 31.5q0 3 -4 3h-140q-5 0 -5 6v67q0 6 6 6h262q7 0 7 -4v-69q0 -2 -1.5 -5t-6.5 -8q-20 -19 -47 -40.5t-65 -47.5z" />
    <glyph glyph-name="questiondown" unicode="&#xbf;" horiz-adv-x="436" 
d="M246 -44q31 0 68.5 6t63.5 13q9 1 10 -10l10 -90q0 -7 -8 -10q-15 -5 -36.5 -8.5t-45 -6t-47.5 -4t-44 -1.5q-49 0 -85.5 5.5t-60.5 23t-36 49t-12 82.5q0 33 7 56.5t21 42t35.5 34t50.5 32.5q24 14 37.5 27t20 28.5t7.5 34.5t1 45q0 11 1 14.5t6 3.5h93q8 0 8 -23
q0 -33 -3 -59.5t-11 -47.5t-21.5 -39t-35.5 -34q-26 -16 -42 -27.5t-24 -22.5t-10.5 -23.5t-2.5 -31.5q0 -12 2.5 -23t11 -19t25.5 -12.5t46 -4.5zM317 535q10 0 10 -10v-120q0 -10 -10 -10h-124q-10 0 -10 10v120q0 10 10 10h124z" />
    <glyph glyph-name="Agrave" unicode="&#xc0;" horiz-adv-x="588" 
d="M395 165q-1 7 -8 7h-195q-9 0 -10 -7l-38 -155q-4 -10 -13 -10h-116q-8 0 -8 6q0 3 1 4q7 30 20.5 81t30.5 113t35 129.5t36 130.5t33 117t26 89q3 10 12 10h191q9 0 12 -10q11 -37 26.5 -94.5t33.5 -123.5t36 -135t34 -130t28 -108t17 -69v-4q0 -6 -7 -6h-128
q-11 0 -13 10zM370 273q6 0 6 6q-4 19 -12 55.5t-18 78.5t-19.5 83.5t-16.5 70.5q-1 3 -4 4t-13 1t-13 -1t-4 -4q-8 -29 -18.5 -70.5t-21 -83.5t-19 -78.5t-12.5 -55.5q0 -6 6 -6h159zM329 737q-18 0 -27 1.5t-18 11.5l-147 144q-4 2 -3 8t11 6h114q5 0 10 -3t8 -7l108 -151
q3 -3 0.5 -6.5t-7.5 -3.5h-49z" />
    <glyph glyph-name="Aacute" unicode="&#xc1;" horiz-adv-x="588" 
d="M395 165q-1 7 -8 7h-195q-9 0 -10 -7l-38 -155q-4 -10 -13 -10h-116q-8 0 -8 6q0 3 1 4q7 30 20.5 81t30.5 113t35 129.5t36 130.5t33 117t26 89q3 10 12 10h191q9 0 12 -10q11 -37 26.5 -94.5t33.5 -123.5t36 -135t34 -130t28 -108t17 -69v-4q0 -6 -7 -6h-128
q-11 0 -13 10zM370 273q6 0 6 6q-4 19 -12 55.5t-18 78.5t-19.5 83.5t-16.5 70.5q-1 3 -4 4t-13 1t-13 -1t-4 -4q-8 -29 -18.5 -70.5t-21 -83.5t-19 -78.5t-12.5 -55.5q0 -6 6 -6h159zM226 737q-5 0 -7.5 3.5t0.5 6.5l108 151q3 4 8 7t10 3h114q10 0 11 -6t-3 -8l-147 -144
q-9 -10 -18 -11.5t-27 -1.5h-49z" />
    <glyph glyph-name="Acircumflex" unicode="&#xc2;" horiz-adv-x="588" 
d="M395 165q-1 7 -8 7h-195q-9 0 -10 -7l-38 -155q-4 -10 -13 -10h-116q-8 0 -8 6q0 3 1 4q7 30 20.5 81t30.5 113t35 129.5t36 130.5t33 117t26 89q3 10 12 10h191q9 0 12 -10q11 -37 26.5 -94.5t33.5 -123.5t36 -135t34 -130t28 -108t17 -69v-4q0 -6 -7 -6h-128
q-11 0 -13 10zM370 273q6 0 6 6q-4 19 -12 55.5t-18 78.5t-19.5 83.5t-16.5 70.5q-1 3 -4 4t-13 1t-13 -1t-4 -4q-8 -29 -18.5 -70.5t-21 -83.5t-19 -78.5t-12.5 -55.5q0 -6 6 -6h159zM413 737q-17 0 -25 1.5t-17 12.5l-68 69q-5 3 -10 3q-8 0 -12 -3l-70 -69
q-10 -10 -17.5 -12t-24.5 -2h-51q-5 0 -8 3t-2 7l117 151q7 10 15 10h103q8 0 15 -10l117 -151q1 -4 -2 -7t-8 -3h-52z" />
    <glyph glyph-name="Atilde" unicode="&#xc3;" horiz-adv-x="588" 
d="M395 165q-1 7 -8 7h-195q-9 0 -10 -7l-38 -155q-4 -10 -13 -10h-116q-8 0 -8 6q0 3 1 4q7 30 20.5 81t30.5 113t35 129.5t36 130.5t33 117t26 89q3 10 12 10h191q9 0 12 -10q11 -37 26.5 -94.5t33.5 -123.5t36 -135t34 -130t28 -108t17 -69v-4q0 -6 -7 -6h-128
q-11 0 -13 10zM370 273q6 0 6 6q-4 19 -12 55.5t-18 78.5t-19.5 83.5t-16.5 70.5q-1 3 -4 4t-13 1t-13 -1t-4 -4q-8 -29 -18.5 -70.5t-21 -83.5t-19 -78.5t-12.5 -55.5q0 -6 6 -6h159zM310 849q19 -13 31 -18.5t22 -5.5q15 0 22 11t11 36q0 4 7 4h53q7 0 7 -9
q0 -23 -6 -45.5t-18 -40t-30 -28.5t-42 -11q-23 0 -42 6t-46 25q-20 14 -30.5 18.5t-21.5 4.5q-14 0 -22 -10t-12 -35q-2 -6 -7 -6h-54q-7 0 -7 9q0 25 7 48t20 40t31 27t40 10q25 0 42.5 -6t44.5 -24z" />
    <glyph glyph-name="Adieresis" unicode="&#xc4;" horiz-adv-x="588" 
d="M395 165q-1 7 -8 7h-195q-9 0 -10 -7l-38 -155q-4 -10 -13 -10h-116q-8 0 -8 6q0 3 1 4q7 30 20.5 81t30.5 113t35 129.5t36 130.5t33 117t26 89q3 10 12 10h191q9 0 12 -10q11 -37 26.5 -94.5t33.5 -123.5t36 -135t34 -130t28 -108t17 -69v-4q0 -6 -7 -6h-128
q-11 0 -13 10zM370 273q6 0 6 6q-4 19 -12 55.5t-18 78.5t-19.5 83.5t-16.5 70.5q-1 3 -4 4t-13 1t-13 -1t-4 -4q-8 -29 -18.5 -70.5t-21 -83.5t-19 -78.5t-12.5 -55.5q0 -6 6 -6h159zM146 751q-10 0 -10 10v87q0 10 10 10h92q10 0 10 -10v-87q0 -10 -10 -10h-92zM350 751
q-10 0 -10 10v87q0 10 10 10h93q10 0 10 -10v-87q0 -10 -10 -10h-93z" />
    <glyph glyph-name="Aring" unicode="&#xc5;" horiz-adv-x="588" 
d="M395 165q-1 7 -8 7h-195q-9 0 -10 -7l-38 -155q-4 -10 -13 -10h-116q-8 0 -8 6q0 3 1 4q7 30 20.5 81t30.5 113t35 129.5t36 130.5t33 117t26 89q3 10 12 10h191q9 0 12 -10q11 -37 26.5 -94.5t33.5 -123.5t36 -135t34 -130t28 -108t17 -69v-4q0 -6 -7 -6h-128
q-11 0 -13 10zM370 273q6 0 6 6q-4 19 -12 55.5t-18 78.5t-19.5 83.5t-16.5 70.5q-1 3 -4 4t-13 1t-13 -1t-4 -4q-8 -29 -18.5 -70.5t-21 -83.5t-19 -78.5t-12.5 -55.5q0 -6 6 -6h159zM360 841q0 38 -17 49.5t-48 11.5q-35 0 -51 -11.5t-16 -49.5q0 -20 4.5 -33t13.5 -20
t21.5 -9.5t27.5 -2.5q34 0 49.5 12t15.5 53zM163 835q0 68 34 94t98 26q63 0 97.5 -25t34.5 -85q0 -38 -10 -61.5t-28 -37t-42 -18.5t-52 -5t-52 5t-42 17.5t-28 34t-10 55.5z" />
    <glyph glyph-name="AE" unicode="&#xc6;" horiz-adv-x="761" 
d="M408 10q-2 10 -5.5 30.5t-7.5 43.5t-8 44.5t-6 33.5q-1 10 -8 10h-189q-6 0 -9 -10q-4 -13 -10 -33.5t-12 -42.5t-11.5 -42.5t-9.5 -33.5q-3 -10 -10 -10h-116q-7 0 -6 10q8 30 23 81t33.5 113t39.5 129.5t40.5 130.5t36.5 117t29 89q5 10 13 10h483q10 0 10 -10v-89
q0 -10 -10 -10h-253q-5 0 -5 -4v-2l28 -158q1 -6 7 -6h207q10 0 10 -10v-83q0 -10 -10 -10h-186q-5 0 -5 -4v-2l31 -176q1 -6 7 -6h184q10 0 10 -10v-90q0 -10 -10 -10h-294q-9 0 -11 10zM363 273q5 0 5 6q-3 19 -9 55.5t-12.5 78.5t-13.5 83.5t-12 70.5q-1 3 -4 4t-13 1
t-13 -1t-4 -4q-9 -29 -21.5 -70.5t-24 -83.5t-21.5 -78.5t-15 -55.5q0 -6 6 -6h152z" />
    <glyph glyph-name="Ccedilla" unicode="&#xc7;" horiz-adv-x="503" 
d="M459 9q-22 -7 -50 -11.5t-62 -6.5q-9 0 -12 -7q-2 -8 -4.5 -19.5t-2.5 -18.5q0 -6 2.5 -7.5t8.5 -1.5q46 0 69.5 -16t23.5 -61q0 -57 -40.5 -79t-121.5 -22q-9 0 -16.5 0.5t-12.5 1.5q-8 2 -8 9l-5 38q0 6 2.5 7.5t8.5 1.5h33q33 0 49.5 8.5t16.5 31.5q0 20 -11.5 27.5
t-46.5 7.5h-23q-7 0 -7 6l15 88q0 5 -1.5 6t-6.5 3q-56 9 -94.5 35.5t-62.5 69.5t-34.5 102t-10.5 133q0 82 13.5 147.5t44.5 111.5t81.5 71t123.5 25q44 0 79.5 -4.5t55.5 -12.5l4.5 -3t1.5 -6l-5 -95q0 -2 -2.5 -4.5t-6.5 -0.5q-20 6 -49 10t-58 4q-43 0 -70.5 -12.5
t-43 -41t-21.5 -75t-6 -115.5q0 -65 6 -109t21.5 -71.5t43 -39.5t70.5 -12q28 0 57 4t48 9q4 1 8 0.5t5 -5.5l7 -89q2 -10 -4 -12z" />
    <glyph glyph-name="Egrave" unicode="&#xc8;" horiz-adv-x="497" 
d="M78 670q0 10 10 10h346q10 0 10 -10v-89q0 -10 -10 -10h-216q-6 0 -6 -6v-158q0 -6 6 -6h201q10 0 10 -10v-83q0 -10 -10 -10h-201q-6 0 -6 -6v-175q0 -6 6 -6h232q10 0 10 -10v-91q0 -10 -10 -10h-362q-10 0 -10 10v660zM296 737q-18 0 -27 1.5t-18 11.5l-147 144
q-4 2 -3 8t11 6h114q5 0 10 -3t8 -7l108 -151q3 -3 0.5 -6.5t-7.5 -3.5h-49z" />
    <glyph glyph-name="Eacute" unicode="&#xc9;" horiz-adv-x="497" 
d="M78 670q0 10 10 10h346q10 0 10 -10v-89q0 -10 -10 -10h-216q-6 0 -6 -6v-158q0 -6 6 -6h201q10 0 10 -10v-83q0 -10 -10 -10h-201q-6 0 -6 -6v-175q0 -6 6 -6h232q10 0 10 -10v-91q0 -10 -10 -10h-362q-10 0 -10 10v660zM209 737q-5 0 -7.5 3.5t0.5 6.5l108 151q3 4 8 7
t10 3h114q10 0 11 -6t-3 -8l-147 -144q-9 -10 -18 -11.5t-27 -1.5h-49z" />
    <glyph glyph-name="Ecircumflex" unicode="&#xca;" horiz-adv-x="497" 
d="M78 670q0 10 10 10h346q10 0 10 -10v-89q0 -10 -10 -10h-216q-6 0 -6 -6v-158q0 -6 6 -6h201q10 0 10 -10v-83q0 -10 -10 -10h-201q-6 0 -6 -6v-175q0 -6 6 -6h232q10 0 10 -10v-91q0 -10 -10 -10h-362q-10 0 -10 10v660zM387 737q-17 0 -25 1.5t-17 12.5l-68 69
q-5 3 -10 3q-8 0 -12 -3l-70 -69q-10 -10 -17.5 -12t-24.5 -2h-51q-5 0 -8 3t-2 7l117 151q7 10 15 10h103q8 0 15 -10l117 -151q1 -4 -2 -7t-8 -3h-52z" />
    <glyph glyph-name="Edieresis" unicode="&#xcb;" horiz-adv-x="497" 
d="M78 670q0 10 10 10h346q10 0 10 -10v-89q0 -10 -10 -10h-216q-6 0 -6 -6v-158q0 -6 6 -6h201q10 0 10 -10v-83q0 -10 -10 -10h-201q-6 0 -6 -6v-175q0 -6 6 -6h232q10 0 10 -10v-91q0 -10 -10 -10h-362q-10 0 -10 10v660zM120 751q-10 0 -10 10v87q0 10 10 10h92
q10 0 10 -10v-87q0 -10 -10 -10h-92zM324 751q-10 0 -10 10v87q0 10 10 10h93q10 0 10 -10v-87q0 -10 -10 -10h-93z" />
    <glyph glyph-name="Igrave" unicode="&#xcc;" horiz-adv-x="289" 
d="M88 0q-10 0 -10 10v660q0 10 10 10h113q10 0 10 -10v-660q0 -10 -10 -10h-113zM168 737q-18 0 -27 1.5t-18 11.5l-147 144q-4 2 -3 8t11 6h114q5 0 10 -3t8 -7l108 -151q3 -3 0.5 -6.5t-7.5 -3.5h-49z" />
    <glyph glyph-name="Iacute" unicode="&#xcd;" horiz-adv-x="289" 
d="M88 0q-10 0 -10 10v660q0 10 10 10h113q10 0 10 -10v-660q0 -10 -10 -10h-113zM82 737q-5 0 -7.5 3.5t0.5 6.5l108 151q3 4 8 7t10 3h114q10 0 11 -6t-3 -8l-147 -144q-9 -10 -18 -11.5t-27 -1.5h-49z" />
    <glyph glyph-name="Icircumflex" unicode="&#xce;" horiz-adv-x="289" 
d="M88 0q-10 0 -10 10v660q0 10 10 10h113q10 0 10 -10v-660q0 -10 -10 -10h-113zM264 737q-17 0 -25 1.5t-17 12.5l-68 69q-5 3 -10 3q-8 0 -12 -3l-70 -69q-10 -10 -17.5 -12t-24.5 -2h-51q-5 0 -8 3t-2 7l117 151q7 10 15 10h103q8 0 15 -10l117 -151q1 -4 -2 -7t-8 -3
h-52z" />
    <glyph glyph-name="Idieresis" unicode="&#xcf;" horiz-adv-x="289" 
d="M88 0q-10 0 -10 10v660q0 10 10 10h113q10 0 10 -10v-660q0 -10 -10 -10h-113zM-2 751q-10 0 -10 10v87q0 10 10 10h92q10 0 10 -10v-87q0 -10 -10 -10h-92zM202 751q-10 0 -10 10v87q0 10 10 10h93q10 0 10 -10v-87q0 -10 -10 -10h-93z" />
    <glyph glyph-name="Eth" unicode="&#xd0;" horiz-adv-x="641" 
d="M340 680q76 0 124 -30t75 -78.5t36.5 -109.5t9.5 -122q0 -62 -9.5 -122.5t-36.5 -109t-75 -78.5t-124 -30h-252q-10 0 -10 10v290q-2 5 -6 5h-50q-10 0 -10 10v64q0 10 10 10h50q5 0 6 4v277q0 10 10 10h252zM448 345q0 51 -5 93.5t-19 73.5t-38.5 48.5t-63.5 17.5h-105
q-6 0 -6 -6v-181q1 -2 5 -2h75q10 0 10 -10v-64q0 -10 -10 -10h-75q-3 0 -5 -2v-194q0 -6 5 -6h107q38 0 62.5 18t38.5 50.5t19 76.5t5 97z" />
    <glyph glyph-name="Ntilde" unicode="&#xd1;" horiz-adv-x="659" 
d="M410 0q-10 0 -14 12l-181 490q-6 20 -14 20q-5 0 -6 -3t-1 -16l8 -493q0 -10 -10 -10h-104q-10 0 -10 10v660q0 10 10 10h171q8 0 13 -12l170 -473q4 -11 6 -13.5t6 -2.5q7 0 7 10l-7 481q0 10 10 10h106q10 0 10 -10v-660q0 -10 -10 -10h-160zM358 849q19 -13 31 -18.5
t22 -5.5q15 0 22 11t11 36q0 4 7 4h53q7 0 7 -9q0 -23 -6 -45.5t-18 -40t-30 -28.5t-42 -11q-23 0 -42 6t-46 25q-20 14 -30.5 18.5t-21.5 4.5q-14 0 -22 -10t-12 -35q-2 -6 -7 -6h-54q-7 0 -7 9q0 25 7 48t20 40t31 27t40 10q25 0 42.5 -6t44.5 -24z" />
    <glyph glyph-name="Ograve" unicode="&#xd2;" horiz-adv-x="647" 
d="M196 340q0 -36 2 -69.5t6 -62t10 -50t14 -33.5q12 -17 34.5 -21t60.5 -4q40 0 62 4t34 21q8 12 14 33.5t10 50t6 62t2 69.5t-2 69.5t-6 62t-10 50t-14 33.5q-12 17 -34 21t-60 4q-40 0 -62.5 -4t-34.5 -21q-8 -12 -14 -33.5t-10 -50t-6 -62t-2 -69.5zM590 340
q0 -96 -17.5 -172t-50.5 -115q-32 -38 -79.5 -50.5t-120.5 -12.5t-119.5 12.5t-78.5 50.5q-32 39 -49.5 115t-17.5 172t17.5 172t49.5 115q32 38 80 50.5t121 12.5t119 -13t78 -50q33 -39 50.5 -115t17.5 -172zM342 737q-18 0 -27 1.5t-18 11.5l-147 144q-4 2 -3 8t11 6h114
q5 0 10 -3t8 -7l108 -151q3 -3 0.5 -6.5t-7.5 -3.5h-49z" />
    <glyph glyph-name="Oacute" unicode="&#xd3;" horiz-adv-x="647" 
d="M196 340q0 -36 2 -69.5t6 -62t10 -50t14 -33.5q12 -17 34.5 -21t60.5 -4q40 0 62 4t34 21q8 12 14 33.5t10 50t6 62t2 69.5t-2 69.5t-6 62t-10 50t-14 33.5q-12 17 -34 21t-60 4q-40 0 -62.5 -4t-34.5 -21q-8 -12 -14 -33.5t-10 -50t-6 -62t-2 -69.5zM590 340
q0 -96 -17.5 -172t-50.5 -115q-32 -38 -79.5 -50.5t-120.5 -12.5t-119.5 12.5t-78.5 50.5q-32 39 -49.5 115t-17.5 172t17.5 172t49.5 115q32 38 80 50.5t121 12.5t119 -13t78 -50q33 -39 50.5 -115t17.5 -172zM264 737q-5 0 -7.5 3.5t0.5 6.5l108 151q3 4 8 7t10 3h114
q10 0 11 -6t-3 -8l-147 -144q-9 -10 -18 -11.5t-27 -1.5h-49z" />
    <glyph glyph-name="Ocircumflex" unicode="&#xd4;" horiz-adv-x="647" 
d="M196 340q0 -36 2 -69.5t6 -62t10 -50t14 -33.5q12 -17 34.5 -21t60.5 -4q40 0 62 4t34 21q8 12 14 33.5t10 50t6 62t2 69.5t-2 69.5t-6 62t-10 50t-14 33.5q-12 17 -34 21t-60 4q-40 0 -62.5 -4t-34.5 -21q-8 -12 -14 -33.5t-10 -50t-6 -62t-2 -69.5zM590 340
q0 -96 -17.5 -172t-50.5 -115q-32 -38 -79.5 -50.5t-120.5 -12.5t-119.5 12.5t-78.5 50.5q-32 39 -49.5 115t-17.5 172t17.5 172t49.5 115q32 38 80 50.5t121 12.5t119 -13t78 -50q33 -39 50.5 -115t17.5 -172zM443 737q-17 0 -25 1.5t-17 12.5l-68 69q-5 3 -10 3
q-8 0 -12 -3l-70 -69q-10 -10 -17.5 -12t-24.5 -2h-51q-5 0 -8 3t-2 7l117 151q7 10 15 10h103q8 0 15 -10l117 -151q1 -4 -2 -7t-8 -3h-52z" />
    <glyph glyph-name="Otilde" unicode="&#xd5;" horiz-adv-x="647" 
d="M196 340q0 -36 2 -69.5t6 -62t10 -50t14 -33.5q12 -17 34.5 -21t60.5 -4q40 0 62 4t34 21q8 12 14 33.5t10 50t6 62t2 69.5t-2 69.5t-6 62t-10 50t-14 33.5q-12 17 -34 21t-60 4q-40 0 -62.5 -4t-34.5 -21q-8 -12 -14 -33.5t-10 -50t-6 -62t-2 -69.5zM590 340
q0 -96 -17.5 -172t-50.5 -115q-32 -38 -79.5 -50.5t-120.5 -12.5t-119.5 12.5t-78.5 50.5q-32 39 -49.5 115t-17.5 172t17.5 172t49.5 115q32 38 80 50.5t121 12.5t119 -13t78 -50q33 -39 50.5 -115t17.5 -172zM339 849q19 -13 31 -18.5t22 -5.5q15 0 22 11t11 36q0 4 7 4
h53q7 0 7 -9q0 -23 -6 -45.5t-18 -40t-30 -28.5t-42 -11q-23 0 -42 6t-46 25q-20 14 -30.5 18.5t-21.5 4.5q-14 0 -22 -10t-12 -35q-2 -6 -7 -6h-54q-7 0 -7 9q0 25 7 48t20 40t31 27t40 10q25 0 42.5 -6t44.5 -24z" />
    <glyph glyph-name="Odieresis" unicode="&#xd6;" horiz-adv-x="647" 
d="M196 340q0 -36 2 -69.5t6 -62t10 -50t14 -33.5q12 -17 34.5 -21t60.5 -4q40 0 62 4t34 21q8 12 14 33.5t10 50t6 62t2 69.5t-2 69.5t-6 62t-10 50t-14 33.5q-12 17 -34 21t-60 4q-40 0 -62.5 -4t-34.5 -21q-8 -12 -14 -33.5t-10 -50t-6 -62t-2 -69.5zM590 340
q0 -96 -17.5 -172t-50.5 -115q-32 -38 -79.5 -50.5t-120.5 -12.5t-119.5 12.5t-78.5 50.5q-32 39 -49.5 115t-17.5 172t17.5 172t49.5 115q32 38 80 50.5t121 12.5t119 -13t78 -50q33 -39 50.5 -115t17.5 -172zM175 751q-10 0 -10 10v87q0 10 10 10h92q10 0 10 -10v-87
q0 -10 -10 -10h-92zM379 751q-10 0 -10 10v87q0 10 10 10h93q10 0 10 -10v-87q0 -10 -10 -10h-93z" />
    <glyph glyph-name="multiply" unicode="&#xd7;" 
d="M72 413q-7 8 0 15l59 60q7 7 14 0l128 -128q3 -4 7 0l127 128q7 6 15 0l58 -59q7 -7 0 -15l-126 -126q-4 -4 0 -8l124 -125q6 -6 0 -15l-59 -58q-8 -8 -16 0l-124 123q-4 3 -7 0l-124 -123q-8 -8 -16 0l-58 58q-7 7 0 14l124 125q3 3 0 6z" />
    <glyph glyph-name="Oslash" unicode="&#xd8;" horiz-adv-x="647" 
d="M114 38l4 8t2 7q0 4 -2 7q-30 41 -45.5 114.5t-15.5 165.5q0 96 17.5 172t49.5 115q32 38 80 50.5t121 12.5q38 0 69 -3.5t56 -11.5q5 0 7 2t6 10l22 39q5 9 16 9h75q5 0 7.5 -4t-1.5 -10l-49 -82q-2 -4 -4.5 -10.5t-0.5 -9.5q30 -42 46 -115t16 -164q0 -96 -17.5 -172
t-50.5 -115q-32 -38 -79.5 -50.5t-120.5 -12.5q-38 0 -68 3t-55 11q-6 1 -13 -11l-23 -39q-5 -9 -16 -9h-75q-5 0 -7.5 4t1.5 10zM196 340q0 -36 2 -69.5t6 -62t10 -50t14 -33.5q12 -17 34.5 -21t60.5 -4q40 0 62 4t34 21q8 12 14 33.5t10 50t6 62t2 69.5t-2 69.5t-6 62
t-10 50t-14 33.5q-12 17 -34 21t-60 4q-40 0 -62.5 -4t-34.5 -21q-8 -12 -14 -33.5t-10 -50t-6 -62t-2 -69.5z" />
    <glyph glyph-name="Ugrave" unicode="&#xd9;" horiz-adv-x="630" 
d="M558 153q0 -41 -17.5 -71.5t-50 -50.5t-77.5 -30.5t-99 -10.5q-125 0 -183.5 41t-58.5 122v517q0 10 10 10h113q10 0 10 -10v-478q0 -29 9 -47t24 -27.5t35 -12.5t43 -3q22 0 42 3t35 13t24 27.5t9 47.5v477q0 10 10 10h112q10 0 10 -10v-517zM328 737q-18 0 -27 1.5
t-18 11.5l-147 144q-4 2 -3 8t11 6h114q5 0 10 -3t8 -7l108 -151q3 -3 0.5 -6.5t-7.5 -3.5h-49z" />
    <glyph glyph-name="Uacute" unicode="&#xda;" horiz-adv-x="630" 
d="M558 153q0 -41 -17.5 -71.5t-50 -50.5t-77.5 -30.5t-99 -10.5q-125 0 -183.5 41t-58.5 122v517q0 10 10 10h113q10 0 10 -10v-478q0 -29 9 -47t24 -27.5t35 -12.5t43 -3q22 0 42 3t35 13t24 27.5t9 47.5v477q0 10 10 10h112q10 0 10 -10v-517zM274 737q-5 0 -7.5 3.5
t0.5 6.5l108 151q3 4 8 7t10 3h114q10 0 11 -6t-3 -8l-147 -144q-9 -10 -18 -11.5t-27 -1.5h-49z" />
    <glyph glyph-name="Ucircumflex" unicode="&#xdb;" horiz-adv-x="630" 
d="M558 153q0 -41 -17.5 -71.5t-50 -50.5t-77.5 -30.5t-99 -10.5q-125 0 -183.5 41t-58.5 122v517q0 10 10 10h113q10 0 10 -10v-478q0 -29 9 -47t24 -27.5t35 -12.5t43 -3q22 0 42 3t35 13t24 27.5t9 47.5v477q0 10 10 10h112q10 0 10 -10v-517zM433 737q-17 0 -25 1.5
t-17 12.5l-68 69q-5 3 -10 3q-8 0 -12 -3l-70 -69q-10 -10 -17.5 -12t-24.5 -2h-51q-5 0 -8 3t-2 7l117 151q7 10 15 10h103q8 0 15 -10l117 -151q1 -4 -2 -7t-8 -3h-52z" />
    <glyph glyph-name="Udieresis" unicode="&#xdc;" horiz-adv-x="630" 
d="M558 153q0 -41 -17.5 -71.5t-50 -50.5t-77.5 -30.5t-99 -10.5q-125 0 -183.5 41t-58.5 122v517q0 10 10 10h113q10 0 10 -10v-478q0 -29 9 -47t24 -27.5t35 -12.5t43 -3q22 0 42 3t35 13t24 27.5t9 47.5v477q0 10 10 10h112q10 0 10 -10v-517zM168 751q-10 0 -10 10v87
q0 10 10 10h92q10 0 10 -10v-87q0 -10 -10 -10h-92zM372 751q-10 0 -10 10v87q0 10 10 10h93q10 0 10 -10v-87q0 -10 -10 -10h-93z" />
    <glyph glyph-name="Yacute" unicode="&#xdd;" horiz-adv-x="552" 
d="M408 669q7 11 17 11h117q9 0 6 -10q-15 -32 -38 -79.5t-48 -97.5t-49 -96t-40 -75q-20 -36 -27.5 -51t-7.5 -26v-235q0 -10 -10 -10h-113q-10 0 -10 10v236q0 6 -1.5 11.5t-4.5 13t-9 18.5t-15 28q-11 20 -26 50t-32 64.5t-34.5 71t-32.5 69l-27 58.5t-18 40q-3 10 7 10
h124q10 0 14 -11q11 -27 25.5 -62.5t29.5 -71.5t30.5 -70.5t27.5 -59.5q5 -11 7.5 -14t7.5 -3t8 3t8 14q12 24 27.5 57t31 69.5t30 72.5t25.5 65zM229 737q-5 0 -7.5 3.5t0.5 6.5l108 151q3 4 8 7t10 3h114q10 0 11 -6t-3 -8l-147 -144q-9 -10 -18 -11.5t-27 -1.5h-49z" />
    <glyph glyph-name="Thorn" unicode="&#xde;" horiz-adv-x="550" 
d="M88 0q-10 0 -10 10v660q0 10 10 10h113q10 0 10 -10v-80q0 -6 6 -6h74q52 0 93.5 -10t69.5 -34.5t43 -64.5t15 -100q0 -68 -18.5 -110.5t-50.5 -66.5t-76 -33t-95 -9h-46q-15 0 -15 -7v-139q0 -10 -10 -10h-113zM266 252q31 0 52.5 5t35.5 18.5t20.5 37t6.5 61.5
q0 34 -6.5 56t-20 35t-34.5 18t-51 5h-50q-8 0 -8 -6v-224q0 -6 8 -6h47z" />
    <glyph glyph-name="germandbls" unicode="&#xdf;" horiz-adv-x="646" 
d="M201 10q0 -10 -10 -10h-110q-10 0 -10 10v495q0 66 19.5 110.5t55 71t84 37.5t107.5 11q107 0 166 -36t59 -126q0 -42 -18.5 -68t-41 -44.5t-41 -34.5t-18.5 -38q0 -10 2 -18t9.5 -18t21 -23t36.5 -32q25 -21 43.5 -38t30 -34.5t17 -37t5.5 -45.5q0 -44 -11 -73
t-33 -46.5t-56 -25t-79 -7.5q-42 0 -82 3t-64 8q-4 1 -4 8l4 86q0 7 8 5q25 -5 57 -8t57 -3t41 2t24.5 8t11.5 16t3 27q0 11 -4 21t-13.5 21t-25.5 24.5t-39 33.5q-25 21 -40.5 37t-24.5 31t-12.5 30.5t-3.5 34.5q0 40 17 64t37.5 42.5t37.5 36.5t17 45q0 38 -22 58t-78 20
q-34 0 -58.5 -7.5t-40.5 -24.5t-23.5 -45t-7.5 -70v-484z" />
    <glyph glyph-name="agrave" unicode="&#xe0;" horiz-adv-x="538" 
d="M234 440q-27 0 -63.5 -3t-60.5 -7q-5 -1 -9.5 -0.5t-5.5 5.5l-7 77q-2 11 6 14q29 8 76.5 13.5t98.5 5.5q46 0 83 -8.5t63 -27t39.5 -49t13.5 -74.5v-363q0 -5 -2.5 -8.5t-10.5 -6.5q-13 -4 -32.5 -7.5t-42.5 -5.5t-48.5 -3.5t-51.5 -1.5q-68 0 -113 7t-72 24.5t-38 46
t-11 71.5q0 38 6 66.5t24 48t51.5 32t88.5 19.5l118 15q6 1 6 6v40q0 45 -24 59.5t-82 14.5zM340 232q0 6 -6 6h-67q-27 0 -45 -3t-29 -12.5t-15.5 -26t-4.5 -43.5t4 -42.5t15 -23.5t29.5 -10.5t48.5 -2.5q17 0 35 1.5t28 3.5q7 2 7 7v146zM288 604q-19 0 -26 2.5t-14 13.5
l-117 177q-1 5 2 7.5t8 2.5h97q9 0 15 -10l82 -183q1 -5 -2 -7.5t-8 -2.5h-37z" />
    <glyph glyph-name="aacute" unicode="&#xe1;" horiz-adv-x="538" 
d="M234 440q-27 0 -63.5 -3t-60.5 -7q-5 -1 -9.5 -0.5t-5.5 5.5l-7 77q-2 11 6 14q29 8 76.5 13.5t98.5 5.5q46 0 83 -8.5t63 -27t39.5 -49t13.5 -74.5v-363q0 -5 -2.5 -8.5t-10.5 -6.5q-13 -4 -32.5 -7.5t-42.5 -5.5t-48.5 -3.5t-51.5 -1.5q-68 0 -113 7t-72 24.5t-38 46
t-11 71.5q0 38 6 66.5t24 48t51.5 32t88.5 19.5l118 15q6 1 6 6v40q0 45 -24 59.5t-82 14.5zM340 232q0 6 -6 6h-67q-27 0 -45 -3t-29 -12.5t-15.5 -26t-4.5 -43.5t4 -42.5t15 -23.5t29.5 -10.5t48.5 -2.5q17 0 35 1.5t28 3.5q7 2 7 7v146zM227 604q-10 0 -10 10l81 183
q6 10 15 10h97q5 0 8 -2.5t2 -7.5l-118 -177q-7 -11 -14.5 -13.5t-25.5 -2.5h-35z" />
    <glyph glyph-name="acircumflex" unicode="&#xe2;" horiz-adv-x="538" 
d="M234 440q-27 0 -63.5 -3t-60.5 -7q-5 -1 -9.5 -0.5t-5.5 5.5l-7 77q-2 11 6 14q29 8 76.5 13.5t98.5 5.5q46 0 83 -8.5t63 -27t39.5 -49t13.5 -74.5v-363q0 -5 -2.5 -8.5t-10.5 -6.5q-13 -4 -32.5 -7.5t-42.5 -5.5t-48.5 -3.5t-51.5 -1.5q-68 0 -113 7t-72 24.5t-38 46
t-11 71.5q0 38 6 66.5t24 48t51.5 32t88.5 19.5l118 15q6 1 6 6v40q0 45 -24 59.5t-82 14.5zM340 232q0 6 -6 6h-67q-27 0 -45 -3t-29 -12.5t-15.5 -26t-4.5 -43.5t4 -42.5t15 -23.5t29.5 -10.5t48.5 -2.5q17 0 35 1.5t28 3.5q7 2 7 7v146zM403 609q-14 0 -20.5 2.5
t-14.5 11.5l-79 94q-5 3 -10 3q-8 0 -12 -3l-81 -94q-8 -9 -13.5 -11.5t-19.5 -2.5h-48q-10 0 -10 10l119 174q7 10 15 10h97q8 0 15 -10l118 -174q1 -5 -2 -7.5t-8 -2.5h-46z" />
    <glyph glyph-name="atilde" unicode="&#xe3;" horiz-adv-x="538" 
d="M234 440q-27 0 -63.5 -3t-60.5 -7q-5 -1 -9.5 -0.5t-5.5 5.5l-7 77q-2 11 6 14q29 8 76.5 13.5t98.5 5.5q46 0 83 -8.5t63 -27t39.5 -49t13.5 -74.5v-363q0 -5 -2.5 -8.5t-10.5 -6.5q-13 -4 -32.5 -7.5t-42.5 -5.5t-48.5 -3.5t-51.5 -1.5q-68 0 -113 7t-72 24.5t-38 46
t-11 71.5q0 38 6 66.5t24 48t51.5 32t88.5 19.5l118 15q6 1 6 6v40q0 45 -24 59.5t-82 14.5zM340 232q0 6 -6 6h-67q-27 0 -45 -3t-29 -12.5t-15.5 -26t-4.5 -43.5t4 -42.5t15 -23.5t29.5 -10.5t48.5 -2.5q17 0 35 1.5t28 3.5q7 2 7 7v146zM303 723q19 -13 31 -19t22 -6
q15 0 22 11t11 36q1 4 7 4h53q7 0 7 -9q0 -23 -6 -45.5t-18 -40t-30 -28.5t-42 -11q-23 0 -42 6t-46 25q-20 14 -30 18.5t-21 4.5q-14 0 -22 -10t-13 -34q0 -7 -7 -7h-54q-7 0 -7 9q0 25 7 48t20 40t31 27t41 10q25 0 42.5 -5.5t43.5 -23.5z" />
    <glyph glyph-name="adieresis" unicode="&#xe4;" horiz-adv-x="538" 
d="M234 440q-27 0 -63.5 -3t-60.5 -7q-5 -1 -9.5 -0.5t-5.5 5.5l-7 77q-2 11 6 14q29 8 76.5 13.5t98.5 5.5q46 0 83 -8.5t63 -27t39.5 -49t13.5 -74.5v-363q0 -5 -2.5 -8.5t-10.5 -6.5q-13 -4 -32.5 -7.5t-42.5 -5.5t-48.5 -3.5t-51.5 -1.5q-68 0 -113 7t-72 24.5t-38 46
t-11 71.5q0 38 6 66.5t24 48t51.5 32t88.5 19.5l118 15q6 1 6 6v40q0 45 -24 59.5t-82 14.5zM340 232q0 6 -6 6h-67q-27 0 -45 -3t-29 -12.5t-15.5 -26t-4.5 -43.5t4 -42.5t15 -23.5t29.5 -10.5t48.5 -2.5q17 0 35 1.5t28 3.5q7 2 7 7v146zM140 630q-10 0 -10 10v87
q0 10 10 10h92q10 0 10 -10v-87q0 -10 -10 -10h-92zM344 630q-10 0 -10 10v87q0 10 10 10h93q10 0 10 -10v-87q0 -10 -10 -10h-93z" />
    <glyph glyph-name="aring" unicode="&#xe5;" horiz-adv-x="538" 
d="M234 440q-27 0 -63.5 -3t-60.5 -7q-5 -1 -9.5 -0.5t-5.5 5.5l-7 77q-2 11 6 14q29 8 76.5 13.5t98.5 5.5q46 0 83 -8.5t63 -27t39.5 -49t13.5 -74.5v-363q0 -5 -2.5 -8.5t-10.5 -6.5q-13 -4 -32.5 -7.5t-42.5 -5.5t-48.5 -3.5t-51.5 -1.5q-68 0 -113 7t-72 24.5t-38 46
t-11 71.5q0 38 6 66.5t24 48t51.5 32t88.5 19.5l118 15q6 1 6 6v40q0 45 -24 59.5t-82 14.5zM340 232q0 6 -6 6h-67q-27 0 -45 -3t-29 -12.5t-15.5 -26t-4.5 -43.5t4 -42.5t15 -23.5t29.5 -10.5t48.5 -2.5q17 0 35 1.5t28 3.5q7 2 7 7v146zM346 719q0 39 -16.5 50.5
t-46.5 11.5q-35 0 -50.5 -12t-15.5 -50q0 -42 17.5 -54.5t48.5 -12.5q33 0 48 12.5t15 54.5zM154 712q0 70 33 97t96 27q62 0 95 -26.5t33 -86.5q0 -39 -10 -63.5t-27.5 -38.5t-41 -19t-49.5 -5t-49.5 5t-41 18t-28 35t-10.5 57z" />
    <glyph glyph-name="ae" unicode="&#xe6;" horiz-adv-x="818" 
d="M746 20q-29 -14 -72 -22t-95 -8q-46 0 -85.5 11t-74.5 37q-2 2 -5.5 2h-5.5q-7 0 -11 -2q-28 -20 -65 -34t-88 -14q-53 0 -90.5 7t-61.5 24.5t-35 46t-11 71.5q0 38 6 66t24 48t51.5 32.5t88.5 19.5l111 15q6 1 6 6v40q0 23 -4.5 37.5t-16 23t-30.5 11.5t-48 3
q-27 0 -63.5 -3t-60.5 -7q-5 -1 -9.5 -0.5t-5.5 5.5l-7 76q-2 11 6 14q29 8 76 13.5t98 5.5q50 0 82.5 -10t53.5 -33q4 -4 10 -4q7 0 12 4q26 21 57 32t77 11q60 0 100 -15.5t63 -45.5t32.5 -73t9.5 -97v-9.5t-0.5 -14t-1 -14.5t-0.5 -10q-1 -23 -6.5 -30t-18.5 -7h-274
q-6 0 -6 -6q0 -40 9 -66.5t26.5 -42t43.5 -21.5t61 -6q37 0 73 7.5t60 15.5q5 2 9 1t6 -6l7 -74q2 -8 -7 -11zM456 316q0 -6 6 -6h177q6 0 9 4.5t3 25.5q0 28 -3.5 49.5t-14 36t-28.5 22t-47 7.5q-33 0 -53 -10.5t-31 -29.5t-14.5 -44t-3.5 -55zM333 232q0 6 -6 6h-61
q-27 0 -45 -3t-28.5 -12.5t-15 -26t-4.5 -43.5t4 -43t14.5 -24t28 -10.5t43.5 -2.5q37 0 53.5 12.5t16.5 35.5v111z" />
    <glyph glyph-name="ccedilla" unicode="&#xe7;" horiz-adv-x="420" 
d="M388 4q-20 -6 -45.5 -9.5t-53.5 -4.5q-3 0 -6.5 -1t-5.5 -5q-2 -8 -4.5 -19.5t-2.5 -18.5q0 -6 2.5 -7.5t8.5 -1.5q46 0 69.5 -16t23.5 -61q0 -57 -40.5 -79t-121.5 -22h-14.5t-12.5 1q-10 2 -10 10l-5 38q0 6 2.5 7.5t8.5 1.5h33q33 0 49.5 8.5t16.5 31.5
q0 20 -11.5 27.5t-46.5 7.5h-23q-7 0 -7 6l15 88q1 7 -2.5 10t-8.5 4q-78 21 -110.5 88t-32.5 176q0 65 11.5 117t37.5 88.5t68.5 56t104.5 19.5q35 0 63.5 -4t45.5 -10q4 -1 4 -7l-4 -86q0 -2 -2 -4t-5 0q-15 4 -36 7t-42 3q-31 0 -52 -8.5t-33.5 -29.5t-17.5 -56t-5 -87
q0 -49 5 -81.5t17.5 -52t33.5 -28t53 -8.5q20 0 40.5 2.5t35.5 6.5q3 1 6 1t4 -4l6 -86q1 -6 -4 -9z" />
    <glyph glyph-name="egrave" unicode="&#xe8;" horiz-adv-x="554" 
d="M183 316q0 -7 6 -7h185q6 0 8.5 4.5t2.5 24.5q0 57 -19 86.5t-76 29.5q-33 0 -54 -10.5t-33 -29t-16 -44t-4 -54.5zM481 19q-29 -14 -73.5 -21.5t-97.5 -7.5q-73 0 -122.5 19.5t-79.5 55.5t-42.5 87t-12.5 114q0 135 58 207t181 72q60 0 100 -16t64 -46t34 -73t10 -97
q0 -51 -4.5 -68t-22.5 -17h-282q-6 0 -6 -6q0 -40 9.5 -66t27.5 -41t45 -21t62 -6q38 0 78 7.5t63 15.5q8 0 11 -5l7 -78q0 -6 -7 -9zM291 604q-19 0 -26 2.5t-14 13.5l-117 177q-1 5 2 7.5t8 2.5h97q9 0 15 -10l82 -183q1 -5 -2 -7.5t-8 -2.5h-37z" />
    <glyph glyph-name="eacute" unicode="&#xe9;" horiz-adv-x="554" 
d="M183 316q0 -7 6 -7h185q6 0 8.5 4.5t2.5 24.5q0 57 -19 86.5t-76 29.5q-33 0 -54 -10.5t-33 -29t-16 -44t-4 -54.5zM481 19q-29 -14 -73.5 -21.5t-97.5 -7.5q-73 0 -122.5 19.5t-79.5 55.5t-42.5 87t-12.5 114q0 135 58 207t181 72q60 0 100 -16t64 -46t34 -73t10 -97
q0 -51 -4.5 -68t-22.5 -17h-282q-6 0 -6 -6q0 -40 9.5 -66t27.5 -41t45 -21t62 -6q38 0 78 7.5t63 15.5q8 0 11 -5l7 -78q0 -6 -7 -9zM246 604q-10 0 -10 10l81 183q6 10 15 10h97q5 0 8 -2.5t2 -7.5l-118 -177q-7 -11 -14.5 -13.5t-25.5 -2.5h-35z" />
    <glyph glyph-name="ecircumflex" unicode="&#xea;" horiz-adv-x="554" 
d="M183 316q0 -7 6 -7h185q6 0 8.5 4.5t2.5 24.5q0 57 -19 86.5t-76 29.5q-33 0 -54 -10.5t-33 -29t-16 -44t-4 -54.5zM481 19q-29 -14 -73.5 -21.5t-97.5 -7.5q-73 0 -122.5 19.5t-79.5 55.5t-42.5 87t-12.5 114q0 135 58 207t181 72q60 0 100 -16t64 -46t34 -73t10 -97
q0 -51 -4.5 -68t-22.5 -17h-282q-6 0 -6 -6q0 -40 9.5 -66t27.5 -41t45 -21t62 -6q38 0 78 7.5t63 15.5q8 0 11 -5l7 -78q0 -6 -7 -9zM411 609q-14 0 -20.5 2.5t-14.5 11.5l-79 94q-5 3 -10 3q-8 0 -12 -3l-81 -94q-8 -9 -13.5 -11.5t-19.5 -2.5h-48q-10 0 -10 10l119 174
q7 10 15 10h97q8 0 15 -10l118 -174q1 -5 -2 -7.5t-8 -2.5h-46z" />
    <glyph glyph-name="edieresis" unicode="&#xeb;" horiz-adv-x="554" 
d="M183 316q0 -7 6 -7h185q6 0 8.5 4.5t2.5 24.5q0 57 -19 86.5t-76 29.5q-33 0 -54 -10.5t-33 -29t-16 -44t-4 -54.5zM481 19q-29 -14 -73.5 -21.5t-97.5 -7.5q-73 0 -122.5 19.5t-79.5 55.5t-42.5 87t-12.5 114q0 135 58 207t181 72q60 0 100 -16t64 -46t34 -73t10 -97
q0 -51 -4.5 -68t-22.5 -17h-282q-6 0 -6 -6q0 -40 9.5 -66t27.5 -41t45 -21t62 -6q38 0 78 7.5t63 15.5q8 0 11 -5l7 -78q0 -6 -7 -9zM129 630q-10 0 -10 10v87q0 10 10 10h92q10 0 10 -10v-87q0 -10 -10 -10h-92zM333 630q-10 0 -10 10v87q0 10 10 10h93q10 0 10 -10v-87
q0 -10 -10 -10h-93z" />
    <glyph glyph-name="igrave" unicode="&#xec;" horiz-adv-x="282" 
d="M85 0q-10 0 -10 10v515q0 10 10 10h111q10 0 10 -10v-515q0 -10 -10 -10h-111zM164 604q-19 0 -26 2.5t-14 13.5l-117 177q-1 5 2 7.5t8 2.5h97q9 0 15 -10l82 -183q1 -5 -2 -7.5t-8 -2.5h-37z" />
    <glyph glyph-name="iacute" unicode="&#xed;" horiz-adv-x="282" 
d="M85 0q-10 0 -10 10v515q0 10 10 10h111q10 0 10 -10v-515q0 -10 -10 -10h-111zM84 604q-10 0 -10 10l81 183q6 10 15 10h97q5 0 8 -2.5t2 -7.5l-118 -177q-7 -11 -14.5 -13.5t-25.5 -2.5h-35z" />
    <glyph glyph-name="icircumflex" unicode="&#xee;" horiz-adv-x="282" 
d="M85 0q-10 0 -10 10v515q0 10 10 10h111q10 0 10 -10v-515q0 -10 -10 -10h-111zM268 609q-14 0 -20.5 2.5t-14.5 11.5l-79 94q-5 3 -10 3q-8 0 -12 -3l-81 -94q-8 -9 -13.5 -11.5t-19.5 -2.5h-48q-10 0 -10 10l119 174q7 10 15 10h97q8 0 15 -10l118 -174q1 -5 -2 -7.5
t-8 -2.5h-46z" />
    <glyph glyph-name="idieresis" unicode="&#xef;" horiz-adv-x="282" 
d="M85 0q-10 0 -10 10v515q0 10 10 10h111q10 0 10 -10v-515q0 -10 -10 -10h-111zM-6 630q-10 0 -10 10v87q0 10 10 10h92q10 0 10 -10v-87q0 -10 -10 -10h-92zM198 630q-10 0 -10 10v87q0 10 10 10h93q10 0 10 -10v-87q0 -10 -10 -10h-93z" />
    <glyph glyph-name="eth" unicode="&#xf0;" horiz-adv-x="578" 
d="M142 551q-5 -1 -8.5 -1t-3.5 5v70q0 5 10 8l96 21q8 2 8 7q-30 33 -60 60q-5 5 -0.5 9.5t9.5 4.5h111q9 0 14.5 -1.5t10.5 -6.5l35 -35q2 -3 8 -3.5t11 1.5l88 23q2 1 7 1t5 -5v-68q0 -6 -9 -9l-43 -10q-8 -2 -7 -8q47 -72 73.5 -159.5t26.5 -189.5q0 -70 -11 -122
t-38.5 -86.5t-73 -51.5t-114.5 -17q-70 0 -115.5 16t-71.5 49t-36.5 83t-10.5 118q0 55 9 102t31.5 81.5t60 54.5t93.5 20q30 0 52.5 -4t36.5 -4q9 0 9 7q0 3 -2 9q-7 16 -17 33t-22 34q-4 4 -12 2zM184 247q0 -46 3.5 -77.5t14.5 -51t31 -28.5t53 -9q31 0 51 8t32 27.5
t17 52t5 82.5q0 45 -4 78t-15 54.5t-31.5 31.5t-54.5 10q-30 0 -49.5 -9t-31.5 -30t-16.5 -55t-4.5 -84z" />
    <glyph glyph-name="ntilde" unicode="&#xf1;" horiz-adv-x="577" 
d="M390 0q-10 0 -10 10v338q0 28 -4 47t-14.5 29.5t-29.5 15t-49 4.5q-46 0 -71 -6q-10 -3 -10 -10v-418q0 -10 -10 -10h-111q-10 0 -10 10v504q0 8 10 10q20 3 46 7t54 7t55.5 5t51.5 2q66 0 109 -9.5t68.5 -31.5t35.5 -58.5t10 -91.5v-344q0 -10 -10 -10h-111zM310 723
q19 -13 31 -19t22 -6q15 0 22 11t11 36q1 4 7 4h53q7 0 7 -9q0 -23 -6 -45.5t-18 -40t-30 -28.5t-42 -11q-23 0 -42 6t-46 25q-20 14 -30 18.5t-21 4.5q-14 0 -22 -10t-13 -34q0 -7 -7 -7h-54q-7 0 -7 9q0 25 7 48t20 40t31 27t41 10q25 0 42.5 -5.5t43.5 -23.5z" />
    <glyph glyph-name="ograve" unicode="&#xf2;" horiz-adv-x="582" 
d="M186 273q0 -55 8 -99.5t23 -61.5q10 -11 25.5 -16.5t47.5 -5.5q35 0 50.5 5.5t24.5 16.5q15 17 22.5 61.5t7.5 99.5q0 56 -7.5 95.5t-22.5 57.5q-9 11 -24.5 16t-48.5 5q-34 0 -49.5 -5t-25.5 -16q-15 -18 -23 -57.5t-8 -95.5zM528 272q0 -75 -17.5 -135.5t-46.5 -92.5
q-28 -29 -69.5 -41.5t-104.5 -12.5t-103 12.5t-67 41.5q-29 32 -48 92.5t-19 135.5q0 76 18.5 133t48.5 88q27 29 68.5 40.5t103.5 11.5q64 0 104 -11.5t68 -40.5q29 -32 46.5 -88.5t17.5 -132.5zM309 604q-19 0 -26 2.5t-14 13.5l-117 177q-1 5 2 7.5t8 2.5h97q9 0 15 -10
l82 -183q1 -5 -2 -7.5t-8 -2.5h-37z" />
    <glyph glyph-name="oacute" unicode="&#xf3;" horiz-adv-x="582" 
d="M186 273q0 -55 8 -99.5t23 -61.5q10 -11 25.5 -16.5t47.5 -5.5q35 0 50.5 5.5t24.5 16.5q15 17 22.5 61.5t7.5 99.5q0 56 -7.5 95.5t-22.5 57.5q-9 11 -24.5 16t-48.5 5q-34 0 -49.5 -5t-25.5 -16q-15 -18 -23 -57.5t-8 -95.5zM528 272q0 -75 -17.5 -135.5t-46.5 -92.5
q-28 -29 -69.5 -41.5t-104.5 -12.5t-103 12.5t-67 41.5q-29 32 -48 92.5t-19 135.5q0 76 18.5 133t48.5 88q27 29 68.5 40.5t103.5 11.5q64 0 104 -11.5t68 -40.5q29 -32 46.5 -88.5t17.5 -132.5zM247 604q-10 0 -10 10l81 183q6 10 15 10h97q5 0 8 -2.5t2 -7.5l-118 -177
q-7 -11 -14.5 -13.5t-25.5 -2.5h-35z" />
    <glyph glyph-name="ocircumflex" unicode="&#xf4;" horiz-adv-x="582" 
d="M186 273q0 -55 8 -99.5t23 -61.5q10 -11 25.5 -16.5t47.5 -5.5q35 0 50.5 5.5t24.5 16.5q15 17 22.5 61.5t7.5 99.5q0 56 -7.5 95.5t-22.5 57.5q-9 11 -24.5 16t-48.5 5q-34 0 -49.5 -5t-25.5 -16q-15 -18 -23 -57.5t-8 -95.5zM528 272q0 -75 -17.5 -135.5t-46.5 -92.5
q-28 -29 -69.5 -41.5t-104.5 -12.5t-103 12.5t-67 41.5q-29 32 -48 92.5t-19 135.5q0 76 18.5 133t48.5 88q27 29 68.5 40.5t103.5 11.5q64 0 104 -11.5t68 -40.5q29 -32 46.5 -88.5t17.5 -132.5zM414 609q-14 0 -20.5 2.5t-14.5 11.5l-79 94q-5 3 -10 3q-8 0 -12 -3
l-81 -94q-8 -9 -13.5 -11.5t-19.5 -2.5h-48q-10 0 -10 10l119 174q7 10 15 10h97q8 0 15 -10l118 -174q1 -5 -2 -7.5t-8 -2.5h-46z" />
    <glyph glyph-name="otilde" unicode="&#xf5;" horiz-adv-x="582" 
d="M186 273q0 -55 8 -99.5t23 -61.5q10 -11 25.5 -16.5t47.5 -5.5q35 0 50.5 5.5t24.5 16.5q15 17 22.5 61.5t7.5 99.5q0 56 -7.5 95.5t-22.5 57.5q-9 11 -24.5 16t-48.5 5q-34 0 -49.5 -5t-25.5 -16q-15 -18 -23 -57.5t-8 -95.5zM528 272q0 -75 -17.5 -135.5t-46.5 -92.5
q-28 -29 -69.5 -41.5t-104.5 -12.5t-103 12.5t-67 41.5q-29 32 -48 92.5t-19 135.5q0 76 18.5 133t48.5 88q27 29 68.5 40.5t103.5 11.5q64 0 104 -11.5t68 -40.5q29 -32 46.5 -88.5t17.5 -132.5zM307 723q19 -13 31 -19t22 -6q15 0 22 11t11 36q1 4 7 4h53q7 0 7 -9
q0 -23 -6 -45.5t-18 -40t-30 -28.5t-42 -11q-23 0 -42 6t-46 25q-20 14 -30 18.5t-21 4.5q-14 0 -22 -10t-13 -34q0 -7 -7 -7h-54q-7 0 -7 9q0 25 7 48t20 40t31 27t41 10q25 0 42.5 -5.5t43.5 -23.5z" />
    <glyph glyph-name="odieresis" unicode="&#xf6;" horiz-adv-x="582" 
d="M186 273q0 -55 8 -99.5t23 -61.5q10 -11 25.5 -16.5t47.5 -5.5q35 0 50.5 5.5t24.5 16.5q15 17 22.5 61.5t7.5 99.5q0 56 -7.5 95.5t-22.5 57.5q-9 11 -24.5 16t-48.5 5q-34 0 -49.5 -5t-25.5 -16q-15 -18 -23 -57.5t-8 -95.5zM528 272q0 -75 -17.5 -135.5t-46.5 -92.5
q-28 -29 -69.5 -41.5t-104.5 -12.5t-103 12.5t-67 41.5q-29 32 -48 92.5t-19 135.5q0 76 18.5 133t48.5 88q27 29 68.5 40.5t103.5 11.5q64 0 104 -11.5t68 -40.5q29 -32 46.5 -88.5t17.5 -132.5zM141 630q-10 0 -10 10v87q0 10 10 10h92q10 0 10 -10v-87q0 -10 -10 -10h-92
zM345 630q-10 0 -10 10v87q0 10 10 10h93q10 0 10 -10v-87q0 -10 -10 -10h-93z" />
    <glyph glyph-name="divide" unicode="&#xf7;" 
d="M72 226q-11 0 -11 11v75q0 11 11 11h423q11 0 11 -11v-75q0 -11 -11 -11h-423zM230 397q-11 0 -11 11v93q0 11 11 11h107q11 0 11 -11v-93q0 -11 -11 -11h-107zM230 35q-11 0 -11 11v93q0 11 11 11h107q11 0 11 -11v-93q0 -11 -11 -11h-107z" />
    <glyph glyph-name="oslash" unicode="&#xf8;" horiz-adv-x="582" 
d="M528 272q0 -75 -17.5 -135.5t-46.5 -92.5q-28 -29 -69.5 -41.5t-104.5 -12.5q-56 0 -97 11q-5 1 -7.5 -2.5t-6.5 -9.5l-20 -35q-5 -9 -16 -9h-74q-5 0 -7.5 4t1.5 10l45 74q5 8 5 14q0 4 -1 6q-26 33 -42.5 90.5t-16.5 128.5q0 76 18.5 133t48.5 88q27 29 68.5 40.5
t103.5 11.5q30 0 55 -2.5t45 -8.5q5 -1 13 12l22 36q5 9 16 9h75q5 0 7.5 -4t-1.5 -10l-47 -75q-2 -4 -4.5 -9.5t-0.5 -9.5q25 -32 40.5 -86t15.5 -125zM186 273q0 -55 8 -99.5t23 -61.5q10 -11 25.5 -16.5t47.5 -5.5q35 0 50.5 5.5t24.5 16.5q15 17 22.5 61.5t7.5 99.5
q0 56 -7.5 95.5t-22.5 57.5q-9 11 -24.5 16t-48.5 5q-34 0 -49.5 -5t-25.5 -16q-15 -18 -23 -57.5t-8 -95.5z" />
    <glyph glyph-name="ugrave" unicode="&#xf9;" horiz-adv-x="577" 
d="M187 535q10 0 10 -10v-332q0 -29 4.5 -48t15.5 -30t31 -16t50 -5q39 0 68 6q9 3 9 10v415q0 10 10 10h110q10 0 10 -10v-504q0 -8 -10 -10q-41 -8 -96.5 -14.5t-102.5 -6.5q-66 0 -110 10t-71 32.5t-38 59.5t-11 92v341q0 10 10 10h111zM291 604q-19 0 -26 2.5t-14 13.5
l-117 177q-1 5 2 7.5t8 2.5h97q9 0 15 -10l82 -183q1 -5 -2 -7.5t-8 -2.5h-37z" />
    <glyph glyph-name="uacute" unicode="&#xfa;" horiz-adv-x="577" 
d="M187 535q10 0 10 -10v-332q0 -29 4.5 -48t15.5 -30t31 -16t50 -5q39 0 68 6q9 3 9 10v415q0 10 10 10h110q10 0 10 -10v-504q0 -8 -10 -10q-41 -8 -96.5 -14.5t-102.5 -6.5q-66 0 -110 10t-71 32.5t-38 59.5t-11 92v341q0 10 10 10h111zM248 604q-10 0 -10 10l81 183
q6 10 15 10h97q5 0 8 -2.5t2 -7.5l-118 -177q-7 -11 -14.5 -13.5t-25.5 -2.5h-35z" />
    <glyph glyph-name="ucircumflex" unicode="&#xfb;" horiz-adv-x="577" 
d="M187 535q10 0 10 -10v-332q0 -29 4.5 -48t15.5 -30t31 -16t50 -5q39 0 68 6q9 3 9 10v415q0 10 10 10h110q10 0 10 -10v-504q0 -8 -10 -10q-41 -8 -96.5 -14.5t-102.5 -6.5q-66 0 -110 10t-71 32.5t-38 59.5t-11 92v341q0 10 10 10h111zM412 609q-14 0 -20.5 2.5
t-14.5 11.5l-79 94q-5 3 -10 3q-8 0 -12 -3l-81 -94q-8 -9 -13.5 -11.5t-19.5 -2.5h-48q-10 0 -10 10l119 174q7 10 15 10h97q8 0 15 -10l118 -174q1 -5 -2 -7.5t-8 -2.5h-46z" />
    <glyph glyph-name="udieresis" unicode="&#xfc;" horiz-adv-x="577" 
d="M187 535q10 0 10 -10v-332q0 -29 4.5 -48t15.5 -30t31 -16t50 -5q39 0 68 6q9 3 9 10v415q0 10 10 10h110q10 0 10 -10v-504q0 -8 -10 -10q-41 -8 -96.5 -14.5t-102.5 -6.5q-66 0 -110 10t-71 32.5t-38 59.5t-11 92v341q0 10 10 10h111zM143 630q-10 0 -10 10v87
q0 10 10 10h92q10 0 10 -10v-87q0 -10 -10 -10h-92zM347 630q-10 0 -10 10v87q0 10 10 10h93q10 0 10 -10v-87q0 -10 -10 -10h-93z" />
    <glyph glyph-name="yacute" unicode="&#xfd;" horiz-adv-x="503" 
d="M224 12q0 5 -13 5h-29q-16 0 -25 6t-12 15q-11 32 -24 76t-26.5 92.5t-26.5 98.5t-24.5 93.5t-19 77.5t-10.5 50q0 9 9 9h121q7 0 9 -9q9 -47 20 -102t23 -110t23.5 -106t21.5 -90q1 -6 13 -6q13 0 15 7l6 20q10 40 21 89.5t22 101.5t21 102.5t18 93.5q1 9 14 9h109
q8 0 8 -10q-3 -17 -12.5 -55t-22 -87t-27.5 -105t-29.5 -108t-27.5 -96t-22 -70q-19 -55 -40 -90.5t-48 -56.5t-62 -29t-82 -8q-17 0 -30 1t-20 3q-10 2 -10 12l-3 64q0 8 2.5 10t9.5 2q37 0 61 2.5t40.5 11t28 23.5t22.5 39q5 11 6.5 15.5t1.5 8.5zM219 604q-10 0 -10 10
l81 183q6 10 15 10h97q5 0 8 -2.5t2 -7.5l-118 -177q-7 -11 -14.5 -13.5t-25.5 -2.5h-35z" />
    <glyph glyph-name="thorn" unicode="&#xfe;" horiz-adv-x="581" 
d="M205 106q0 -8 21 -11t44 -3q40 0 64 8t37 28.5t17.5 56t4.5 91.5q0 54 -6 87.5t-20 52t-37 24.5t-57 6q-32 0 -50 -4t-18 -15v-321zM75 725q0 10 10 10h110q10 0 10 -10v-180q0 -9 8 -9q3 0 12.5 0.5t21 1.5t23 1.5t18.5 0.5q68 0 114 -13.5t74 -43.5t40 -79t12 -120
q0 -73 -10.5 -126.5t-39 -89t-78 -52.5t-127.5 -17q-7 0 -16 0.5l-18 1t-16 1t-10 0.5q-8 0 -8 -8v-164q0 -10 -10 -10h-110q-10 0 -10 10v895z" />
    <glyph glyph-name="ydieresis" unicode="&#xff;" horiz-adv-x="503" 
d="M224 12q0 5 -13 5h-29q-16 0 -25 6t-12 15q-11 32 -24 76t-26.5 92.5t-26.5 98.5t-24.5 93.5t-19 77.5t-10.5 50q0 9 9 9h121q7 0 9 -9q9 -47 20 -102t23 -110t23.5 -106t21.5 -90q1 -6 13 -6q13 0 15 7l6 20q10 40 21 89.5t22 101.5t21 102.5t18 93.5q1 9 14 9h109
q8 0 8 -10q-3 -17 -12.5 -55t-22 -87t-27.5 -105t-29.5 -108t-27.5 -96t-22 -70q-19 -55 -40 -90.5t-48 -56.5t-62 -29t-82 -8q-17 0 -30 1t-20 3q-10 2 -10 12l-3 64q0 8 2.5 10t9.5 2q37 0 61 2.5t40.5 11t28 23.5t22.5 39q5 11 6.5 15.5t1.5 8.5zM108 630q-10 0 -10 10
v87q0 10 10 10h92q10 0 10 -10v-87q0 -10 -10 -10h-92zM312 630q-10 0 -10 10v87q0 10 10 10h93q10 0 10 -10v-87q0 -10 -10 -10h-93z" />
    <glyph glyph-name="Amacron" unicode="&#x100;" horiz-adv-x="588" 
d="M395 165q-1 7 -8 7h-195q-9 0 -10 -7l-38 -155q-4 -10 -13 -10h-116q-8 0 -8 6q0 3 1 4q7 30 20.5 81t30.5 113t35 129.5t36 130.5t33 117t26 89q3 10 12 10h191q9 0 12 -10q11 -37 26.5 -94.5t33.5 -123.5t36 -135t34 -130t28 -108t17 -69v-4q0 -6 -7 -6h-128
q-11 0 -13 10zM370 273q6 0 6 6q-4 19 -12 55.5t-18 78.5t-19.5 83.5t-16.5 70.5q-1 3 -4 4t-13 1t-13 -1t-4 -4q-8 -29 -18.5 -70.5t-21 -83.5t-19 -78.5t-12.5 -55.5q0 -6 6 -6h159zM157 750q-10 0 -10 10v72q0 10 10 10h273q10 0 10 -10v-72q0 -10 -10 -10h-273z" />
    <glyph glyph-name="amacron" unicode="&#x101;" horiz-adv-x="538" 
d="M234 440q-27 0 -63.5 -3t-60.5 -7q-5 -1 -9.5 -0.5t-5.5 5.5l-7 77q-2 11 6 14q29 8 76.5 13.5t98.5 5.5q46 0 83 -8.5t63 -27t39.5 -49t13.5 -74.5v-363q0 -5 -2.5 -8.5t-10.5 -6.5q-13 -4 -32.5 -7.5t-42.5 -5.5t-48.5 -3.5t-51.5 -1.5q-68 0 -113 7t-72 24.5t-38 46
t-11 71.5q0 38 6 66.5t24 48t51.5 32t88.5 19.5l118 15q6 1 6 6v40q0 45 -24 59.5t-82 14.5zM340 232q0 6 -6 6h-67q-27 0 -45 -3t-29 -12.5t-15.5 -26t-4.5 -43.5t4 -42.5t15 -23.5t29.5 -10.5t48.5 -2.5q17 0 35 1.5t28 3.5q7 2 7 7v146zM149 636q-10 0 -10 10v72
q0 10 10 10h273q10 0 10 -10v-72q0 -10 -10 -10h-273z" />
    <glyph glyph-name="Abreve" unicode="&#x102;" horiz-adv-x="588" 
d="M395 165q-1 7 -8 7h-195q-9 0 -10 -7l-38 -155q-4 -10 -13 -10h-116q-8 0 -8 6q0 3 1 4q7 30 20.5 81t30.5 113t35 129.5t36 130.5t33 117t26 89q3 10 12 10h191q9 0 12 -10q11 -37 26.5 -94.5t33.5 -123.5t36 -135t34 -130t28 -108t17 -69v-4q0 -6 -7 -6h-128
q-11 0 -13 10zM370 273q6 0 6 6q-4 19 -12 55.5t-18 78.5t-19.5 83.5t-16.5 70.5q-1 3 -4 4t-13 1t-13 -1t-4 -4q-8 -29 -18.5 -70.5t-21 -83.5t-19 -78.5t-12.5 -55.5q0 -6 6 -6h159zM294 809q45 0 61.5 12.5t16.5 50.5q0 12 10 12h57q10 0 10 -10q0 -82 -37.5 -113.5
t-118.5 -31.5t-118 31.5t-37 113.5q0 10 10 10h56q11 0 11 -12q0 -38 17 -50.5t62 -12.5z" />
    <glyph glyph-name="abreve" unicode="&#x103;" horiz-adv-x="538" 
d="M234 440q-27 0 -63.5 -3t-60.5 -7q-5 -1 -9.5 -0.5t-5.5 5.5l-7 77q-2 11 6 14q29 8 76.5 13.5t98.5 5.5q46 0 83 -8.5t63 -27t39.5 -49t13.5 -74.5v-363q0 -5 -2.5 -8.5t-10.5 -6.5q-13 -4 -32.5 -7.5t-42.5 -5.5t-48.5 -3.5t-51.5 -1.5q-68 0 -113 7t-72 24.5t-38 46
t-11 71.5q0 38 6 66.5t24 48t51.5 32t88.5 19.5l118 15q6 1 6 6v40q0 45 -24 59.5t-82 14.5zM340 232q0 6 -6 6h-67q-27 0 -45 -3t-29 -12.5t-15.5 -26t-4.5 -43.5t4 -42.5t15 -23.5t29.5 -10.5t48.5 -2.5q17 0 35 1.5t28 3.5q7 2 7 7v146zM285 685q25 0 40 4t23.5 12.5
t11.5 21.5t3 32q0 8 2 10t8 2h57q10 0 10 -10q0 -41 -8 -69.5t-26.5 -46.5t-48.5 -26.5t-73 -8.5t-72.5 8.5t-48 26.5t-26.5 46.5t-8 69.5q0 10 10 10h56q6 0 8.5 -2t2.5 -10q0 -19 3 -32t11.5 -21.5t24 -12.5t40.5 -4z" />
    <glyph glyph-name="Aogonek" unicode="&#x104;" horiz-adv-x="588" 
d="M459 -116q0 -22 10 -30t30 -8q10 0 20.5 1t20.5 3q8 2 12 2q6 0 6 -10v-42q0 -9 -8 -12q-16 -6 -37.5 -9t-45.5 -3q-25 0 -44.5 4t-33.5 14.5t-21.5 28.5t-7.5 45q0 34 16.5 64.5t59.5 68.5q-4 4 -5 9l-36 155q-1 7 -8 7h-195q-9 0 -10 -7l-38 -155q-4 -10 -13 -10h-116
q-8 0 -8 6q0 3 1 4q7 30 20.5 81t30.5 113t35 129.5t36 130.5t33 117t26 89q3 10 12 10h191q9 0 12 -10q11 -37 26.5 -94.5t33.5 -123.5t36 -135t34 -130t28 -108t17 -69v-4q0 -6 -7 -6h-51q-30 -35 -46 -60t-16 -56zM370 273q6 0 6 6q-4 19 -12 55.5t-18 78.5t-19.5 83.5
t-16.5 70.5q-1 3 -4 4t-13 1t-13 -1t-4 -4q-8 -29 -18.5 -70.5t-21 -83.5t-19 -78.5t-12.5 -55.5q0 -6 6 -6h159z" />
    <glyph glyph-name="aogonek" unicode="&#x105;" horiz-adv-x="538" 
d="M372 -116q0 -22 10 -30t30 -8q10 0 20.5 1t20.5 3q8 2 12 2q6 0 6 -10v-42q0 -9 -8 -12q-16 -6 -37.5 -9t-45.5 -3q-25 0 -44.5 4t-33.5 14.5t-21.5 28.5t-7.5 45q0 32 14.5 60.5t51.5 63.5q-15 -1 -29.5 -1.5t-29.5 -0.5q-68 0 -113 7t-72 24.5t-38 46t-11 71.5
q0 38 6 66.5t24 48t51.5 32t88.5 19.5l118 15q6 1 6 6v40q0 45 -24 59.5t-82 14.5q-27 0 -63.5 -3t-60.5 -7q-5 -1 -9.5 -0.5t-5.5 5.5l-7 77q-2 11 6 14q29 8 76.5 13.5t98.5 5.5q46 0 83 -8.5t63 -27t39.5 -49t13.5 -74.5v-363q0 -11 -11 -14.5t-20 -5.5
q-32 -35 -48.5 -61t-16.5 -58zM340 232q0 6 -6 6h-67q-27 0 -45 -3t-29 -12.5t-15.5 -26t-4.5 -43.5t4 -42.5t15 -23.5t29.5 -10.5t48.5 -2.5q17 0 35 1.5t28 3.5q7 2 7 7v146z" />
    <glyph glyph-name="Cacute" unicode="&#x106;" horiz-adv-x="503" 
d="M459 9q-26 -8 -61.5 -13.5t-79.5 -5.5q-73 0 -123.5 22.5t-81.5 66.5t-44.5 108.5t-13.5 147.5q0 82 13.5 147.5t44.5 111.5t81.5 71t123.5 25q44 0 79.5 -4.5t55.5 -12.5q3 -2 5 -3t2 -6l-5 -95q0 -2 -3 -4.5t-7 -0.5q-20 6 -49 10t-58 4q-43 0 -70.5 -12.5t-43 -41
t-21.5 -75t-6 -115.5q0 -65 6 -109t21.5 -71.5t43 -39.5t70.5 -12q28 0 57 4t48 9q4 1 8 0.5t5 -5.5l7 -89q2 -10 -4 -12zM243 737q-5 0 -7.5 3.5t0.5 6.5l108 151q3 4 8 7t10 3h114q10 0 11 -6t-3 -8l-147 -144q-9 -10 -18 -11.5t-27 -1.5h-49z" />
    <glyph glyph-name="cacute" unicode="&#x107;" horiz-adv-x="420" 
d="M388 4q-22 -7 -51.5 -10.5t-60.5 -3.5q-62 0 -104.5 18t-68.5 52.5t-38 86t-12 117.5q0 65 11.5 117t37.5 88.5t68.5 56t104.5 19.5q35 0 63.5 -4t45.5 -10q5 -2 5 -7l-4 -86q0 -7 -8 -4q-15 4 -36 7t-42 3q-31 0 -52 -8.5t-33.5 -29.5t-17.5 -56t-5 -87q0 -49 5 -81.5
t17.5 -52t33.5 -28t53 -8.5q20 0 40.5 2.5t35.5 6.5q3 1 6 1t4 -4l6 -86q1 -6 -4 -9zM229 604q-10 0 -10 10l81 183q6 10 15 10h97q5 0 8 -2.5t2 -7.5l-118 -177q-7 -11 -14.5 -13.5t-25.5 -2.5h-35z" />
    <glyph glyph-name="Ccircumflex" unicode="&#x108;" horiz-adv-x="503" 
d="M459 9q-26 -8 -61.5 -13.5t-79.5 -5.5q-73 0 -123.5 22.5t-81.5 66.5t-44.5 108.5t-13.5 147.5q0 82 13.5 147.5t44.5 111.5t81.5 71t123.5 25q44 0 79.5 -4.5t55.5 -12.5q3 -2 5 -3t2 -6l-5 -95q0 -2 -3 -4.5t-7 -0.5q-20 6 -49 10t-58 4q-43 0 -70.5 -12.5t-43 -41
t-21.5 -75t-6 -115.5q0 -65 6 -109t21.5 -71.5t43 -39.5t70.5 -12q28 0 57 4t48 9q4 1 8 0.5t5 -5.5l7 -89q2 -10 -4 -12zM421 737q-17 0 -25 1.5t-17 12.5l-68 69q-5 3 -10 3q-8 0 -12 -3l-70 -69q-10 -10 -17.5 -12t-24.5 -2h-51q-5 0 -8 3t-2 7l117 151q7 10 15 10h103
q8 0 15 -10l117 -151q1 -4 -2 -7t-8 -3h-52z" />
    <glyph glyph-name="ccircumflex" unicode="&#x109;" horiz-adv-x="420" 
d="M388 4q-22 -7 -51.5 -10.5t-60.5 -3.5q-62 0 -104.5 18t-68.5 52.5t-38 86t-12 117.5q0 65 11.5 117t37.5 88.5t68.5 56t104.5 19.5q35 0 63.5 -4t45.5 -10q5 -2 5 -7l-4 -86q0 -7 -8 -4q-15 4 -36 7t-42 3q-31 0 -52 -8.5t-33.5 -29.5t-17.5 -56t-5 -87q0 -49 5 -81.5
t17.5 -52t33.5 -28t53 -8.5q20 0 40.5 2.5t35.5 6.5q3 1 6 1t4 -4l6 -86q1 -6 -4 -9zM389 609q-14 0 -20.5 2.5t-14.5 11.5l-79 94q-5 3 -10 3q-8 0 -12 -3l-81 -94q-8 -9 -13.5 -11.5t-19.5 -2.5h-48q-10 0 -10 10l119 174q7 10 15 10h97q8 0 15 -10l118 -174q1 -5 -2 -7.5
t-8 -2.5h-46z" />
    <glyph glyph-name="Cdotaccent" unicode="&#x10a;" horiz-adv-x="503" 
d="M459 9q-26 -8 -61.5 -13.5t-79.5 -5.5q-73 0 -123.5 22.5t-81.5 66.5t-44.5 108.5t-13.5 147.5q0 82 13.5 147.5t44.5 111.5t81.5 71t123.5 25q44 0 79.5 -4.5t55.5 -12.5q3 -2 5 -3t2 -6l-5 -95q0 -2 -3 -4.5t-7 -0.5q-20 6 -49 10t-58 4q-43 0 -70.5 -12.5t-43 -41
t-21.5 -75t-6 -115.5q0 -65 6 -109t21.5 -71.5t43 -39.5t70.5 -12q28 0 57 4t48 9q4 1 8 0.5t5 -5.5l7 -89q2 -10 -4 -12zM264 747q-10 0 -10 10v93q0 10 10 10h100q10 0 10 -10v-93q0 -10 -10 -10h-100z" />
    <glyph glyph-name="cdotaccent" unicode="&#x10b;" horiz-adv-x="420" 
d="M388 4q-22 -7 -51.5 -10.5t-60.5 -3.5q-62 0 -104.5 18t-68.5 52.5t-38 86t-12 117.5q0 65 11.5 117t37.5 88.5t68.5 56t104.5 19.5q35 0 63.5 -4t45.5 -10q5 -2 5 -7l-4 -86q0 -7 -8 -4q-15 4 -36 7t-42 3q-31 0 -52 -8.5t-33.5 -29.5t-17.5 -56t-5 -87q0 -49 5 -81.5
t17.5 -52t33.5 -28t53 -8.5q20 0 40.5 2.5t35.5 6.5q3 1 6 1t4 -4l6 -86q1 -6 -4 -9zM207 626q-10 0 -10 10v93q0 10 10 10h100q10 0 10 -10v-93q0 -10 -10 -10h-100z" />
    <glyph glyph-name="Ccaron" unicode="&#x10c;" horiz-adv-x="503" 
d="M459 9q-26 -8 -61.5 -13.5t-79.5 -5.5q-73 0 -123.5 22.5t-81.5 66.5t-44.5 108.5t-13.5 147.5q0 82 13.5 147.5t44.5 111.5t81.5 71t123.5 25q44 0 79.5 -4.5t55.5 -12.5q3 -2 5 -3t2 -6l-5 -95q0 -2 -3 -4.5t-7 -0.5q-20 6 -49 10t-58 4q-43 0 -70.5 -12.5t-43 -41
t-21.5 -75t-6 -115.5q0 -65 6 -109t21.5 -71.5t43 -39.5t70.5 -12q28 0 57 4t48 9q4 1 8 0.5t5 -5.5l7 -89q2 -10 -4 -12zM180 899q17 0 25 -1.5t17 -12.5l68 -68q4 -3 10 -3q7 0 12 3l70 68q10 10 17.5 12t24.5 2h51q5 0 8 -2.5t2 -7.5l-117 -150q-7 -10 -15 -10h-103
q-8 0 -15 10l-117 150q-1 5 2 7.5t8 2.5h52z" />
    <glyph glyph-name="ccaron" unicode="&#x10d;" horiz-adv-x="420" 
d="M388 4q-22 -7 -51.5 -10.5t-60.5 -3.5q-62 0 -104.5 18t-68.5 52.5t-38 86t-12 117.5q0 65 11.5 117t37.5 88.5t68.5 56t104.5 19.5q35 0 63.5 -4t45.5 -10q5 -2 5 -7l-4 -86q0 -7 -8 -4q-15 4 -36 7t-42 3q-31 0 -52 -8.5t-33.5 -29.5t-17.5 -56t-5 -87q0 -49 5 -81.5
t17.5 -52t33.5 -28t53 -8.5q20 0 40.5 2.5t35.5 6.5q3 1 6 1t4 -4l6 -86q1 -6 -4 -9zM138 796q14 0 20.5 -2t14.5 -12l79 -94q4 -3 10 -3q7 0 12 3l81 94q8 10 13.5 12t18.5 2h48q5 0 8 -2.5t2 -7.5l-118 -174q-7 -10 -15 -10h-97q-8 0 -15 10l-119 174q0 10 10 10h47z" />
    <glyph glyph-name="Dcaron" unicode="&#x10e;" horiz-adv-x="641" 
d="M448 345q0 51 -5 93.5t-19 73.5t-38.5 48.5t-63.5 17.5h-105q-6 0 -6 -6v-463q0 -6 5 -6h107q38 0 62.5 18t38.5 50.5t19 76.5t5 97zM340 680q76 0 124 -30t75 -78.5t36.5 -109.5t9.5 -122q0 -62 -9.5 -122.5t-36.5 -109t-75 -78.5t-124 -30h-252q-10 0 -10 10v660
q0 10 10 10h252zM174 899q17 0 25 -1.5t17 -12.5l68 -68q4 -3 10 -3q7 0 12 3l70 68q10 10 17.5 12t24.5 2h51q5 0 8 -2.5t2 -7.5l-117 -150q-7 -10 -15 -10h-103q-8 0 -15 10l-117 150q-1 5 2 7.5t8 2.5h52z" />
    <glyph glyph-name="dcaron" unicode="&#x10f;" horiz-adv-x="582" 
d="M313 -10q-78 0 -128 15t-79 48.5t-40 87t-11 130.5q0 138 54 205.5t177 67.5q26 0 50.5 -3t34.5 -3q7 0 7 9v178q0 10 10 10h111q10 0 10 -10v-701q0 -4 -1.5 -7t-8.5 -6q-12 -5 -34 -9t-47.5 -6.5t-53 -4t-51.5 -1.5zM378 430q0 4 -1.5 8t-6.5 5q-23 5 -58 5
q-34 0 -57 -7t-37.5 -26.5t-20.5 -54.5t-6 -91q0 -55 4.5 -90.5t17.5 -56.5t37 -29t64 -8q12 0 28 1t27 4q9 3 9 10v330zM565 614q-5 0 -8 2.5t-2 7.5l39 195q3 10 14 10h87q5 0 8.5 -2.5t1.5 -7.5l-68 -190q-5 -10 -11 -12.5t-20 -2.5h-41z" />
    <glyph glyph-name="Dcroat" unicode="&#x110;" horiz-adv-x="641" 
d="M340 680q76 0 124 -30t75 -78.5t36.5 -109.5t9.5 -122q0 -62 -9.5 -122.5t-36.5 -109t-75 -78.5t-124 -30h-252q-10 0 -10 10v290q-2 5 -6 5h-50q-10 0 -10 10v64q0 10 10 10h50q5 0 6 4v277q0 10 10 10h252zM448 345q0 51 -5 93.5t-19 73.5t-38.5 48.5t-63.5 17.5h-105
q-6 0 -6 -6v-181q1 -2 5 -2h75q10 0 10 -10v-64q0 -10 -10 -10h-75q-3 0 -5 -2v-194q0 -6 5 -6h107q38 0 62.5 18t38.5 50.5t19 76.5t5 97z" />
    <glyph glyph-name="dcroat" unicode="&#x111;" horiz-adv-x="582" 
d="M313 -10q-78 0 -128 15t-79 48.5t-40 87t-11 130.5q0 138 54 205.5t177 67.5q26 0 50.5 -3t34.5 -3q7 0 7 9v39q-2 5 -6 5h-94q-10 0 -10 10v61q0 10 10 10h94q5 0 6 4v49q0 10 10 10h111q10 0 10 -10v-47q0 -6 6 -6h34q10 0 10 -10v-61q0 -10 -10 -10h-34q-6 0 -6 -5
v-562q0 -9 -19 -15t-48.5 -10.5t-64 -6.5t-64.5 -2zM378 430q0 12 -20.5 15t-45.5 3q-34 0 -57 -7t-37.5 -26.5t-20.5 -54.5t-6 -91q0 -55 4.5 -90.5t17.5 -56.5t37 -29t64 -8q9 0 20 0.5t21 2t16.5 4.5t6.5 8v330z" />
    <glyph glyph-name="Emacron" unicode="&#x112;" horiz-adv-x="497" 
d="M78 670q0 10 10 10h346q10 0 10 -10v-89q0 -10 -10 -10h-216q-6 0 -6 -6v-158q0 -6 6 -6h201q10 0 10 -10v-83q0 -10 -10 -10h-201q-6 0 -6 -6v-175q0 -6 6 -6h232q10 0 10 -10v-91q0 -10 -10 -10h-362q-10 0 -10 10v660zM131 750q-10 0 -10 10v72q0 10 10 10h273
q10 0 10 -10v-72q0 -10 -10 -10h-273z" />
    <glyph glyph-name="emacron" unicode="&#x113;" horiz-adv-x="554" 
d="M183 316q0 -7 6 -7h185q6 0 8.5 4.5t2.5 24.5q0 57 -19 86.5t-76 29.5q-33 0 -54 -10.5t-33 -29t-16 -44t-4 -54.5zM481 19q-29 -14 -73.5 -21.5t-97.5 -7.5q-73 0 -122.5 19.5t-79.5 55.5t-42.5 87t-12.5 114q0 135 58 207t181 72q60 0 100 -16t64 -46t34 -73t10 -97
q0 -51 -4.5 -68t-22.5 -17h-282q-6 0 -6 -6q0 -40 9.5 -66t27.5 -41t45 -21t62 -6q38 0 78 7.5t63 15.5q8 0 11 -5l7 -78q0 -6 -7 -9zM146 636q-10 0 -10 10v72q0 10 10 10h273q10 0 10 -10v-72q0 -10 -10 -10h-273z" />
    <glyph glyph-name="Ebreve" unicode="&#x114;" horiz-adv-x="497" 
d="M78 670q0 10 10 10h346q10 0 10 -10v-89q0 -10 -10 -10h-216q-6 0 -6 -6v-158q0 -6 6 -6h201q10 0 10 -10v-83q0 -10 -10 -10h-201q-6 0 -6 -6v-175q0 -6 6 -6h232q10 0 10 -10v-91q0 -10 -10 -10h-362q-10 0 -10 10v660zM271 809q45 0 61.5 12.5t16.5 50.5q0 12 10 12
h57q10 0 10 -10q0 -82 -37.5 -113.5t-118.5 -31.5t-118 31.5t-37 113.5q0 10 10 10h56q11 0 11 -12q0 -38 17 -50.5t62 -12.5z" />
    <glyph glyph-name="ebreve" unicode="&#x115;" horiz-adv-x="554" 
d="M183 316q0 -7 6 -7h185q6 0 8.5 4.5t2.5 24.5q0 57 -19 86.5t-76 29.5q-33 0 -54 -10.5t-33 -29t-16 -44t-4 -54.5zM481 19q-29 -14 -73.5 -21.5t-97.5 -7.5q-73 0 -122.5 19.5t-79.5 55.5t-42.5 87t-12.5 114q0 135 58 207t181 72q60 0 100 -16t64 -46t34 -73t10 -97
q0 -51 -4.5 -68t-22.5 -17h-282q-6 0 -6 -6q0 -40 9.5 -66t27.5 -41t45 -21t62 -6q38 0 78 7.5t63 15.5q8 0 11 -5l7 -78q0 -6 -7 -9zM281 685q25 0 40 4t23.5 12.5t11.5 21.5t3 32q0 8 2 10t8 2h57q10 0 10 -10q0 -41 -8 -69.5t-26.5 -46.5t-48.5 -26.5t-73 -8.5t-72.5 8.5
t-48 26.5t-26.5 46.5t-8 69.5q0 10 10 10h56q6 0 8.5 -2t2.5 -10q0 -19 3 -32t11.5 -21.5t24 -12.5t40.5 -4z" />
    <glyph glyph-name="Edotaccent" unicode="&#x116;" horiz-adv-x="497" 
d="M78 670q0 10 10 10h346q10 0 10 -10v-89q0 -10 -10 -10h-216q-6 0 -6 -6v-158q0 -6 6 -6h201q10 0 10 -10v-83q0 -10 -10 -10h-201q-6 0 -6 -6v-175q0 -6 6 -6h232q10 0 10 -10v-91q0 -10 -10 -10h-362q-10 0 -10 10v660zM224 747q-10 0 -10 10v93q0 10 10 10h100
q10 0 10 -10v-93q0 -10 -10 -10h-100z" />
    <glyph glyph-name="edotaccent" unicode="&#x117;" horiz-adv-x="554" 
d="M183 316q0 -7 6 -7h185q6 0 8.5 4.5t2.5 24.5q0 57 -19 86.5t-76 29.5q-33 0 -54 -10.5t-33 -29t-16 -44t-4 -54.5zM481 19q-29 -14 -73.5 -21.5t-97.5 -7.5q-73 0 -122.5 19.5t-79.5 55.5t-42.5 87t-12.5 114q0 135 58 207t181 72q60 0 100 -16t64 -46t34 -73t10 -97
q0 -51 -4.5 -68t-22.5 -17h-282q-6 0 -6 -6q0 -40 9.5 -66t27.5 -41t45 -21t62 -6q38 0 78 7.5t63 15.5q8 0 11 -5l7 -78q0 -6 -7 -9zM232 626q-10 0 -10 10v93q0 10 10 10h100q10 0 10 -10v-93q0 -10 -10 -10h-100z" />
    <glyph glyph-name="Eogonek" unicode="&#x118;" horiz-adv-x="497" 
d="M353 -116q0 -22 10 -30t30 -8q10 0 20.5 1t20.5 3q8 2 12 2q6 0 6 -10v-42q0 -9 -8 -12q-16 -6 -37.5 -9t-45.5 -3q-25 0 -44.5 4t-33.5 14.5t-21.5 28.5t-7.5 45q0 34 16.5 64t58.5 68h-241q-10 0 -10 10v660q0 10 10 10h346q10 0 10 -10v-89q0 -10 -10 -10h-216
q-6 0 -6 -6v-158q0 -6 6 -6h201q10 0 10 -10v-83q0 -10 -10 -10h-201q-6 0 -6 -6v-175q0 -6 6 -6h232q10 0 10 -10v-91q0 -10 -10 -10h-35q-30 -35 -46 -60t-16 -56z" />
    <glyph glyph-name="eogonek" unicode="&#x119;" horiz-adv-x="554" 
d="M397 -116q0 -22 10 -30t30 -8q10 0 20.5 1t20.5 3q8 2 12 2q6 0 6 -10v-42q0 -9 -8 -12q-16 -6 -37.5 -9t-45.5 -3q-25 0 -44.5 4t-33.5 14.5t-21.5 28.5t-7.5 45q0 32 14.5 60.5t51.5 64.5q-26 -3 -54 -3q-73 0 -122.5 19.5t-79.5 55.5t-42.5 87t-12.5 114q0 135 58 207
t181 72q60 0 100 -16t64 -46t34 -73t10 -97q0 -51 -4.5 -68t-22.5 -17h-282q-6 0 -6 -6q0 -40 9.5 -66t27.5 -41t45 -21t62 -6q38 0 78 7.5t63 15.5q8 0 11 -5l7 -78q0 -6 -7 -9q-8 -4 -22 -18q-30 -35 -46 -60.5t-16 -56.5zM183 316q0 -7 6 -7h185q6 0 8.5 4.5t2.5 24.5
q0 57 -19 86.5t-76 29.5q-33 0 -54 -10.5t-33 -29t-16 -44t-4 -54.5z" />
    <glyph glyph-name="Ecaron" unicode="&#x11a;" horiz-adv-x="497" 
d="M78 670q0 10 10 10h346q10 0 10 -10v-89q0 -10 -10 -10h-216q-6 0 -6 -6v-158q0 -6 6 -6h201q10 0 10 -10v-83q0 -10 -10 -10h-201q-6 0 -6 -6v-175q0 -6 6 -6h232q10 0 10 -10v-91q0 -10 -10 -10h-362q-10 0 -10 10v660zM147 899q17 0 25 -1.5t17 -12.5l68 -68
q4 -3 10 -3q7 0 12 3l70 68q10 10 17.5 12t24.5 2h51q5 0 8 -2.5t2 -7.5l-117 -150q-7 -10 -15 -10h-103q-8 0 -15 10l-117 150q-1 5 2 7.5t8 2.5h52z" />
    <glyph glyph-name="ecaron" unicode="&#x11b;" horiz-adv-x="554" 
d="M183 316q0 -7 6 -7h185q6 0 8.5 4.5t2.5 24.5q0 57 -19 86.5t-76 29.5q-33 0 -54 -10.5t-33 -29t-16 -44t-4 -54.5zM481 19q-29 -14 -73.5 -21.5t-97.5 -7.5q-73 0 -122.5 19.5t-79.5 55.5t-42.5 87t-12.5 114q0 135 58 207t181 72q60 0 100 -16t64 -46t34 -73t10 -97
q0 -51 -4.5 -68t-22.5 -17h-282q-6 0 -6 -6q0 -40 9.5 -66t27.5 -41t45 -21t62 -6q38 0 78 7.5t63 15.5q8 0 11 -5l7 -78q0 -6 -7 -9zM154 796q14 0 20.5 -2t14.5 -12l79 -94q4 -3 10 -3q7 0 12 3l81 94q8 10 13.5 12t18.5 2h48q5 0 8 -2.5t2 -7.5l-118 -174q-7 -10 -15 -10
h-97q-8 0 -15 10l-119 174q0 10 10 10h47z" />
    <glyph glyph-name="Gcircumflex" unicode="&#x11c;" horiz-adv-x="603" 
d="M362 581q-43 0 -74 -12t-51.5 -40.5t-30 -76t-9.5 -118.5q0 -67 8 -112.5t26.5 -73t48 -39t72.5 -11.5q16 0 32.5 2t25.5 5q7 2 7 9v169q0 6 -6 6h-79q-10 0 -10 10v87q0 10 10 10h199q10 0 10 -10v-349q0 -8 -1.5 -11.5t-7.5 -5.5q-32 -11 -82.5 -20.5t-110.5 -9.5
q-152 0 -218 89t-66 256q0 82 16 147.5t50.5 111.5t89 71t131.5 25q22 0 45.5 -1.5t45.5 -3.5t40 -5t28 -7q3 -2 5 -3t2 -6l-5 -95q0 -2 -3 -4.5t-7 -0.5q-10 3 -26 6t-34.5 5.5t-37 4t-33.5 1.5zM447 737q-17 0 -25 1.5t-17 12.5l-68 69q-5 3 -10 3q-8 0 -12 -3l-70 -69
q-10 -10 -17.5 -12t-24.5 -2h-51q-5 0 -8 3t-2 7l117 151q7 10 15 10h103q8 0 15 -10l117 -151q1 -4 -2 -7t-8 -3h-52z" />
    <glyph glyph-name="gcircumflex" unicode="&#x11d;" horiz-adv-x="580" 
d="M507 12q0 -59 -17 -96.5t-48.5 -58.5t-76 -29t-99.5 -8q-17 0 -42.5 2t-52.5 5.5t-51 8t-38 10.5q-7 3 -7 8l12 78q2 7 9 6q14 -3 33.5 -6.5t40.5 -6.5t42 -5t39 -2q45 0 70 6t37.5 19.5t15.5 35t3 51.5q0 7 -6 7q-20 -2 -41 -3t-45 -1q-63 0 -107 11.5t-71.5 39
t-40 74.5t-12.5 119q0 71 13.5 122t44.5 83.5t80 47.5t120 15q21 0 47.5 -1t52.5 -3.5t49 -6.5t38 -10q5 -2 6.5 -4.5t1.5 -5.5v-502zM312 121q21 0 35.5 2t22.5 4q7 2 7 9v295q0 6 -6 9q-11 5 -27 6.5t-37 1.5q-35 0 -57.5 -6.5t-36 -24.5t-19 -50t-5.5 -84
q0 -51 4.5 -82.5t17.5 -49t37 -24t64 -6.5zM436 609q-14 0 -20.5 2.5t-14.5 11.5l-79 94q-5 3 -10 3q-8 0 -12 -3l-81 -94q-8 -9 -13.5 -11.5t-19.5 -2.5h-48q-10 0 -10 10l119 174q7 10 15 10h97q8 0 15 -10l118 -174q1 -5 -2 -7.5t-8 -2.5h-46z" />
    <glyph glyph-name="Gbreve" unicode="&#x11e;" horiz-adv-x="603" 
d="M362 581q-43 0 -74 -12t-51.5 -40.5t-30 -76t-9.5 -118.5q0 -67 8 -112.5t26.5 -73t48 -39t72.5 -11.5q16 0 32.5 2t25.5 5q7 2 7 9v169q0 6 -6 6h-79q-10 0 -10 10v87q0 10 10 10h199q10 0 10 -10v-349q0 -8 -1.5 -11.5t-7.5 -5.5q-32 -11 -82.5 -20.5t-110.5 -9.5
q-152 0 -218 89t-66 256q0 82 16 147.5t50.5 111.5t89 71t131.5 25q22 0 45.5 -1.5t45.5 -3.5t40 -5t28 -7q3 -2 5 -3t2 -6l-5 -95q0 -2 -3 -4.5t-7 -0.5q-10 3 -26 6t-34.5 5.5t-37 4t-33.5 1.5zM335 809q45 0 61.5 12.5t16.5 50.5q0 12 10 12h57q10 0 10 -10
q0 -82 -37.5 -113.5t-118.5 -31.5t-118 31.5t-37 113.5q0 10 10 10h56q11 0 11 -12q0 -38 17 -50.5t62 -12.5z" />
    <glyph glyph-name="gbreve" unicode="&#x11f;" horiz-adv-x="580" 
d="M507 12q0 -59 -17 -96.5t-48.5 -58.5t-76 -29t-99.5 -8q-17 0 -42.5 2t-52.5 5.5t-51 8t-38 10.5q-7 3 -7 8l12 78q2 7 9 6q14 -3 33.5 -6.5t40.5 -6.5t42 -5t39 -2q45 0 70 6t37.5 19.5t15.5 35t3 51.5q0 7 -6 7q-20 -2 -41 -3t-45 -1q-63 0 -107 11.5t-71.5 39
t-40 74.5t-12.5 119q0 71 13.5 122t44.5 83.5t80 47.5t120 15q21 0 47.5 -1t52.5 -3.5t49 -6.5t38 -10q5 -2 6.5 -4.5t1.5 -5.5v-502zM312 121q21 0 35.5 2t22.5 4q7 2 7 9v295q0 6 -6 9q-11 5 -27 6.5t-37 1.5q-35 0 -57.5 -6.5t-36 -24.5t-19 -50t-5.5 -84
q0 -51 4.5 -82.5t17.5 -49t37 -24t64 -6.5zM306 685q25 0 40 4t23.5 12.5t11.5 21.5t3 32q0 8 2 10t8 2h57q10 0 10 -10q0 -41 -8 -69.5t-26.5 -46.5t-48.5 -26.5t-73 -8.5t-72.5 8.5t-48 26.5t-26.5 46.5t-8 69.5q0 10 10 10h56q6 0 8.5 -2t2.5 -10q0 -19 3 -32t11.5 -21.5
t24 -12.5t40.5 -4z" />
    <glyph glyph-name="Gdotaccent" unicode="&#x120;" horiz-adv-x="603" 
d="M362 581q-43 0 -74 -12t-51.5 -40.5t-30 -76t-9.5 -118.5q0 -67 8 -112.5t26.5 -73t48 -39t72.5 -11.5q16 0 32.5 2t25.5 5q7 2 7 9v169q0 6 -6 6h-79q-10 0 -10 10v87q0 10 10 10h199q10 0 10 -10v-349q0 -8 -1.5 -11.5t-7.5 -5.5q-32 -11 -82.5 -20.5t-110.5 -9.5
q-152 0 -218 89t-66 256q0 82 16 147.5t50.5 111.5t89 71t131.5 25q22 0 45.5 -1.5t45.5 -3.5t40 -5t28 -7q3 -2 5 -3t2 -6l-5 -95q0 -2 -3 -4.5t-7 -0.5q-10 3 -26 6t-34.5 5.5t-37 4t-33.5 1.5zM283 747q-10 0 -10 10v93q0 10 10 10h100q10 0 10 -10v-93q0 -10 -10 -10
h-100z" />
    <glyph glyph-name="gdotaccent" unicode="&#x121;" horiz-adv-x="580" 
d="M507 12q0 -59 -17 -96.5t-48.5 -58.5t-76 -29t-99.5 -8q-17 0 -42.5 2t-52.5 5.5t-51 8t-38 10.5q-7 3 -7 8l12 78q2 7 9 6q14 -3 33.5 -6.5t40.5 -6.5t42 -5t39 -2q45 0 70 6t37.5 19.5t15.5 35t3 51.5q0 7 -6 7q-20 -2 -41 -3t-45 -1q-63 0 -107 11.5t-71.5 39
t-40 74.5t-12.5 119q0 71 13.5 122t44.5 83.5t80 47.5t120 15q21 0 47.5 -1t52.5 -3.5t49 -6.5t38 -10q5 -2 6.5 -4.5t1.5 -5.5v-502zM312 121q21 0 35.5 2t22.5 4q7 2 7 9v295q0 6 -6 9q-11 5 -27 6.5t-37 1.5q-35 0 -57.5 -6.5t-36 -24.5t-19 -50t-5.5 -84
q0 -51 4.5 -82.5t17.5 -49t37 -24t64 -6.5zM254 626q-10 0 -10 10v93q0 10 10 10h100q10 0 10 -10v-93q0 -10 -10 -10h-100z" />
    <glyph glyph-name="uni0122" unicode="&#x122;" horiz-adv-x="603" 
d="M362 581q-43 0 -74 -12t-51.5 -40.5t-30 -76t-9.5 -118.5q0 -67 8 -112.5t26.5 -73t48 -39t72.5 -11.5q16 0 32.5 2t25.5 5q7 2 7 9v169q0 6 -6 6h-79q-10 0 -10 10v87q0 10 10 10h199q10 0 10 -10v-349q0 -8 -1.5 -11.5t-7.5 -5.5q-32 -11 -82.5 -20.5t-110.5 -9.5
q-152 0 -218 89t-66 256q0 82 16 147.5t50.5 111.5t89 71t131.5 25q22 0 45.5 -1.5t45.5 -3.5t40 -5t28 -7q3 -2 5 -3t2 -6l-5 -95q0 -2 -3 -4.5t-7 -0.5q-10 3 -26 6t-34.5 5.5t-37 4t-33.5 1.5zM218 -238q-4 0 -7 2t-2 7l68 162q4 9 12 9h95q5 0 8 -2.5t1 -6.5l-100 -157
q-7 -10 -12.5 -12t-22.5 -2h-40z" />
    <glyph glyph-name="uni0123" unicode="&#x123;" horiz-adv-x="580" 
d="M507 12q0 -59 -17 -96.5t-48.5 -58.5t-76 -29t-99.5 -8q-17 0 -42.5 2t-52.5 5.5t-51 8t-38 10.5q-7 3 -7 8l12 78q2 7 9 6q14 -3 33.5 -6.5t40.5 -6.5t42 -5t39 -2q45 0 70 6t37.5 19.5t15.5 35t3 51.5q0 7 -6 7q-20 -2 -41 -3t-45 -1q-63 0 -107 11.5t-71.5 39
t-40 74.5t-12.5 119q0 71 13.5 122t44.5 83.5t80 47.5t120 15q21 0 47.5 -1t52.5 -3.5t49 -6.5t38 -10q5 -2 6.5 -4.5t1.5 -5.5v-502zM312 121q21 0 35.5 2t22.5 4q7 2 7 9v295q0 6 -6 9q-11 5 -27 6.5t-37 1.5q-35 0 -57.5 -6.5t-36 -24.5t-19 -50t-5.5 -84
q0 -51 4.5 -82.5t17.5 -49t37 -24t64 -6.5zM399 798q9 0 9 -9l-68 -169q-5 -9 -12 -9h-92q-8 0 -8 9l99 164q7 9 13 11.5t23 2.5h36z" />
    <glyph glyph-name="Hcircumflex" unicode="&#x124;" horiz-adv-x="642" 
d="M430 670q0 10 10 10h114q10 0 10 -10v-660q0 -10 -10 -10h-114q-10 0 -10 10v280q0 6 -6 6h-207q-6 0 -6 -6v-280q0 -10 -10 -10h-113q-10 0 -10 10v660q0 10 10 10h113q10 0 10 -10v-262q0 -6 6 -6h207q6 0 6 6v262zM437 737q-17 0 -25 1.5t-17 12.5l-68 69q-5 3 -10 3
q-8 0 -12 -3l-70 -69q-10 -10 -17.5 -12t-24.5 -2h-51q-5 0 -8 3t-2 7l117 151q7 10 15 10h103q8 0 15 -10l117 -151q1 -4 -2 -7t-8 -3h-52z" />
    <glyph glyph-name="hcircumflex" unicode="&#x125;" horiz-adv-x="579" 
d="M73 725q0 10 10 10h110q10 0 10 -10v-184q0 -8 11 -8q26 5 56.5 8.5t53.5 3.5q52 0 87.5 -9t58 -30.5t32.5 -57.5t10 -91v-347q0 -10 -10 -10h-111q-10 0 -10 10v336q0 28 -4 47t-14.5 30.5t-28.5 16t-47 4.5q-23 0 -42 -1.5t-32 -4.5q-10 -3 -10 -10v-418q0 -10 -10 -10
h-110q-10 0 -10 10v715zM388 763q-14 0 -20.5 2.5t-14.5 11.5l-79 94q-5 3 -10 3q-8 0 -12 -3l-81 -94q-8 -9 -13.5 -11.5t-19.5 -2.5h-48q-10 0 -10 10l119 174q7 10 15 10h97q8 0 15 -10l118 -174q1 -5 -2 -7.5t-8 -2.5h-46z" />
    <glyph glyph-name="Hbar" unicode="&#x126;" horiz-adv-x="642" 
d="M430 670q0 10 10 10h114q10 0 10 -10v-86q1 -2 5 -2h37q10 0 10 -10v-64q0 -10 -10 -10h-37q-3 0 -5 -2v-486q0 -10 -10 -10h-114q-10 0 -10 10v280q0 6 -6 6h-207q-6 0 -6 -6v-280q0 -10 -10 -10h-113q-10 0 -10 10v483q-2 5 -6 5h-37q-10 0 -10 10v64q0 10 10 10h37
q6 0 6 6v82q0 10 10 10h113q10 0 10 -10v-82q0 -6 6 -6h207q6 0 6 6v82zM430 492q0 6 -6 6h-207q-6 0 -6 -5v-85q0 -6 6 -6h207q6 0 6 6v84z" />
    <glyph glyph-name="hbar" unicode="&#x127;" horiz-adv-x="579" 
d="M73 585q0 6 -7 6h-31q-10 0 -10 10v61q0 10 10 10h31q7 0 7 6v47q0 10 10 10h110q10 0 10 -10v-47q0 -6 6 -6h98q10 0 10 -10v-61q0 -10 -10 -10h-98q-6 0 -6 -5v-45q0 -8 11 -8q26 5 56.5 8.5t53.5 3.5q52 0 87.5 -9t58 -30.5t32.5 -57.5t10 -91v-347q0 -10 -10 -10
h-111q-10 0 -10 10v336q0 28 -4 47t-14.5 30.5t-28.5 16t-47 4.5q-23 0 -42 -1.5t-32 -4.5q-10 -3 -10 -10v-418q0 -10 -10 -10h-110q-10 0 -10 10v575z" />
    <glyph glyph-name="Itilde" unicode="&#x128;" horiz-adv-x="289" 
d="M88 0q-10 0 -10 10v660q0 10 10 10h113q10 0 10 -10v-660q0 -10 -10 -10h-113zM160 849q19 -13 31 -18.5t22 -5.5q15 0 22 11t11 36q0 4 7 4h53q7 0 7 -9q0 -23 -6 -45.5t-18 -40t-30 -28.5t-42 -11q-23 0 -42 6t-46 25q-20 14 -30.5 18.5t-21.5 4.5q-14 0 -22 -10
t-12 -35q-2 -6 -7 -6h-54q-7 0 -7 9q0 25 7 48t20 40t31 27t40 10q25 0 42.5 -6t44.5 -24z" />
    <glyph glyph-name="itilde" unicode="&#x129;" horiz-adv-x="282" 
d="M85 0q-10 0 -10 10v515q0 10 10 10h111q10 0 10 -10v-515q0 -10 -10 -10h-111zM158 723q19 -13 31 -19t22 -6q15 0 22 11t11 36q1 4 7 4h53q7 0 7 -9q0 -23 -6 -45.5t-18 -40t-30 -28.5t-42 -11q-23 0 -42 6t-46 25q-20 14 -30 18.5t-21 4.5q-14 0 -22 -10t-13 -34
q0 -7 -7 -7h-54q-7 0 -7 9q0 25 7 48t20 40t31 27t41 10q25 0 42.5 -5.5t43.5 -23.5z" />
    <glyph glyph-name="Imacron" unicode="&#x12a;" horiz-adv-x="289" 
d="M88 0q-10 0 -10 10v660q0 10 10 10h113q10 0 10 -10v-660q0 -10 -10 -10h-113zM10 750q-10 0 -10 10v72q0 10 10 10h273q10 0 10 -10v-72q0 -10 -10 -10h-273z" />
    <glyph glyph-name="imacron" unicode="&#x12b;" horiz-adv-x="282" 
d="M85 0q-10 0 -10 10v515q0 10 10 10h111q10 0 10 -10v-515q0 -10 -10 -10h-111zM5 636q-10 0 -10 10v72q0 10 10 10h273q10 0 10 -10v-72q0 -10 -10 -10h-273z" />
    <glyph glyph-name="Ibreve" unicode="&#x12c;" horiz-adv-x="289" 
d="M88 0q-10 0 -10 10v660q0 10 10 10h113q10 0 10 -10v-660q0 -10 -10 -10h-113zM146 809q45 0 61.5 12.5t16.5 50.5q0 12 10 12h57q10 0 10 -10q0 -82 -37.5 -113.5t-118.5 -31.5t-118 31.5t-37 113.5q0 10 10 10h56q11 0 11 -12q0 -38 17 -50.5t62 -12.5z" />
    <glyph glyph-name="ibreve" unicode="&#x12d;" horiz-adv-x="282" 
d="M85 0q-10 0 -10 10v515q0 10 10 10h111q10 0 10 -10v-515q0 -10 -10 -10h-111zM142 685q25 0 40 4t23.5 12.5t11.5 21.5t3 32q0 8 2 10t8 2h57q10 0 10 -10q0 -41 -8 -69.5t-26.5 -46.5t-48.5 -26.5t-73 -8.5t-72.5 8.5t-48 26.5t-26.5 46.5t-8 69.5q0 10 10 10h56
q6 0 8.5 -2t2.5 -10q0 -19 3 -32t11.5 -21.5t24 -12.5t40.5 -4z" />
    <glyph glyph-name="Iogonek" unicode="&#x12e;" horiz-adv-x="289" 
d="M127 -116q0 -22 10 -30t30 -8q10 0 20.5 1t20.5 3q8 2 12 2q6 0 6 -10v-42q0 -9 -8 -12q-16 -6 -37.5 -9t-45.5 -3q-25 0 -44.5 4t-33.5 14.5t-21.5 28.5t-7.5 45q0 34 16.5 64t58.5 68h-15q-10 0 -10 10v660q0 10 10 10h113q10 0 10 -10v-660q0 -10 -10 -10h-12
q-30 -35 -46 -60t-16 -56z" />
    <glyph glyph-name="iogonek" unicode="&#x12f;" horiz-adv-x="282" 
d="M121 -116q0 -22 10 -30t30 -8q10 0 20.5 1t20.5 3q8 2 12 2q6 0 6 -10v-42q0 -9 -8 -12q-16 -6 -37.5 -9t-45.5 -3q-25 0 -44.5 4t-33.5 14.5t-21.5 28.5t-7.5 45q0 34 16.5 64t58.5 68h-12q-10 0 -10 10v515q0 10 10 10h111q10 0 10 -10v-515q0 -10 -10 -10h-13
q-30 -35 -46 -60t-16 -56zM82 624q-10 0 -10 10v99q0 10 10 10h117q10 0 10 -10v-99q0 -10 -10 -10h-117z" />
    <glyph glyph-name="Idotaccent" unicode="&#x130;" horiz-adv-x="289" 
d="M88 0q-10 0 -10 10v660q0 10 10 10h113q10 0 10 -10v-660q0 -10 -10 -10h-113zM97 747q-10 0 -10 10v93q0 10 10 10h100q10 0 10 -10v-93q0 -10 -10 -10h-100z" />
    <glyph glyph-name="dotlessi" unicode="&#x131;" horiz-adv-x="282" 
d="M85 0q-10 0 -10 10v515q0 10 10 10h111q10 0 10 -10v-515q0 -10 -10 -10h-111z" />
    <glyph glyph-name="Jcircumflex" unicode="&#x134;" horiz-adv-x="328" 
d="M17 -1q-6 2 -6 13l4 82q1 9 10 9q6 -2 16.5 -2.5t18.5 -0.5q20 0 32 3.5t18.5 13.5t8.5 27.5t2 44.5v481q0 10 10 10h113q10 0 10 -10v-500q0 -47 -6 -81t-23.5 -56t-49 -32t-81.5 -10q-22 0 -44 3t-33 5zM306 737q-17 0 -25 1.5t-17 12.5l-68 69q-5 3 -10 3q-8 0 -12 -3
l-70 -69q-10 -10 -17.5 -12t-24.5 -2h-51q-5 0 -8 3t-2 7l117 151q7 10 15 10h103q8 0 15 -10l117 -151q1 -4 -2 -7t-8 -3h-52z" />
    <glyph glyph-name="jcircumflex" unicode="&#x135;" horiz-adv-x="282" 
d="M75 525q0 10 10 10h112q10 0 10 -10v-524q0 -53 -5 -89t-22 -57.5t-49 -31t-85 -9.5q-34 0 -58 4.5t-23 16.5l3 72q1 8 11 8q6 -2 15 -2.5t18 -0.5q21 0 33.5 3.5t19 14t8.5 31t2 55.5v509zM264 609q-14 0 -20.5 2.5t-14.5 11.5l-79 94q-5 3 -10 3q-8 0 -12 -3l-81 -94
q-8 -9 -13.5 -11.5t-19.5 -2.5h-48q-10 0 -10 10l119 174q7 10 15 10h97q8 0 15 -10l118 -174q1 -5 -2 -7.5t-8 -2.5h-46z" />
    <glyph glyph-name="uni0136" unicode="&#x136;" horiz-adv-x="575" 
d="M557 670q-7 -12 -21 -34t-31.5 -48.5t-36.5 -56t-37.5 -58t-34.5 -53t-27 -40.5q-7 -10 -8.5 -14t-1.5 -8q0 -10 9 -23q11 -17 28.5 -44.5t37.5 -59.5t41 -66.5t39.5 -65t32 -54.5t19.5 -35q0 -10 -9 -10h-130q-6 0 -9.5 3t-5.5 6q-12 22 -32.5 60t-44 79t-45.5 79
t-36 61q-5 8 -11 10t-21 2q-10 0 -10 -7v-283q0 -10 -10 -10h-114q-10 0 -10 10v660q0 10 10 10h114q10 0 10 -10v-261q0 -7 12 -7q28 0 32 7q15 24 37 61t44.5 75t42 72t30.5 53q4 10 12 10h127q8 0 8 -10zM193 -238q-4 0 -7 2t-2 7l68 162q4 9 12 9h95q5 0 8 -2.5t1 -6.5
l-100 -157q-7 -10 -12.5 -12t-22.5 -2h-40z" />
    <glyph glyph-name="uni0137" unicode="&#x137;" horiz-adv-x="539" 
d="M202 345q0 -9 18 -9q16 0 20 4q15 20 33 45.5t35.5 51t33 49t26.5 40.5q3 5 6 7t9 2h133q16 0 12 -9q-6 -9 -26 -35t-46 -59t-54.5 -67.5t-50.5 -61.5q-6 -6 -6 -12q0 -4 8 -14q16 -22 43.5 -61.5t55 -80.5t51 -76t31.5 -48q2 -4 1 -7.5t-12 -3.5h-127q-9 0 -14 8
q-12 22 -30.5 52t-38.5 62t-38.5 61.5t-31.5 49.5q-2 4 -9.5 7t-15.5 3q-11 0 -13.5 -2t-2.5 -7v-224q0 -10 -10 -10h-110q-10 0 -10 10v715q0 10 10 10h110q10 0 10 -10v-380zM179 -238q-4 0 -7 2t-2 7l68 162q4 9 12 9h95q5 0 8 -2.5t1 -6.5l-100 -157q-7 -10 -12.5 -12
t-22.5 -2h-40z" />
    <glyph glyph-name="kgreenlandic" unicode="&#x138;" horiz-adv-x="539" 
d="M202 345q0 -9 18 -9q16 0 20 4q15 20 33 45.5t35.5 51t33 49t26.5 40.5q3 5 6 7t9 2h133q16 0 12 -9q-6 -9 -26 -35t-46 -59t-54.5 -67.5t-50.5 -61.5q-6 -6 -6 -12q0 -4 8 -14q16 -22 43.5 -61.5t55 -80.5t51 -76t31.5 -48q2 -4 1 -7.5t-12 -3.5h-127q-9 0 -14 8
q-12 22 -30.5 52t-38.5 62t-38.5 61.5t-31.5 49.5q-2 4 -9.5 7t-15.5 3q-11 0 -13.5 -2t-2.5 -7v-224q0 -10 -10 -10h-110q-10 0 -10 10v515q0 10 10 10h110q10 0 10 -10v-180z" />
    <glyph glyph-name="Lacute" unicode="&#x139;" horiz-adv-x="409" 
d="M78 670q0 10 10 10h113q10 0 10 -10v-553q0 -6 6 -6h166q10 0 10 -10v-91q0 -10 -10 -10h-295q-10 0 -10 10v660zM94 737q-5 0 -7.5 3.5t0.5 6.5l108 151q3 4 8 7t10 3h114q10 0 11 -6t-3 -8l-147 -144q-9 -10 -18 -11.5t-27 -1.5h-49z" />
    <glyph glyph-name="lacute" unicode="&#x13a;" horiz-adv-x="295" 
d="M271 0q-17 -5 -35.5 -7.5t-41.5 -2.5q-63 0 -94 26t-31 96v612q0 11 10 11h111q10 0 10 -11v-594q0 -24 10 -33t32 -9h32q10 0 10 -10l-3 -66q0 -10 -10 -12zM107 759q-10 0 -10 10l81 183q6 10 15 10h97q5 0 8 -2.5t2 -7.5l-118 -177q-7 -11 -14.5 -13.5t-25.5 -2.5h-35
z" />
    <glyph glyph-name="uni013B" unicode="&#x13b;" horiz-adv-x="409" 
d="M78 670q0 10 10 10h113q10 0 10 -10v-553q0 -6 6 -6h166q10 0 10 -10v-91q0 -10 -10 -10h-295q-10 0 -10 10v660zM125 -238q-4 0 -7 2t-2 7l68 162q4 9 12 9h95q5 0 8 -2.5t1 -6.5l-100 -157q-7 -10 -12.5 -12t-22.5 -2h-40z" />
    <glyph glyph-name="uni013C" unicode="&#x13c;" horiz-adv-x="295" 
d="M271 0q-17 -5 -35.5 -7.5t-41.5 -2.5q-63 0 -94 26t-31 96v612q0 11 10 11h111q10 0 10 -11v-594q0 -24 10 -33t32 -9h32q10 0 10 -10l-3 -66q0 -10 -10 -12zM59 -238q-4 0 -7 2t-2 7l68 162q4 9 12 9h95q5 0 8 -2.5t1 -6.5l-100 -157q-7 -10 -12.5 -12t-22.5 -2h-40z
" />
    <glyph glyph-name="Lcaron" unicode="&#x13d;" horiz-adv-x="409" 
d="M78 670q0 10 10 10h113q10 0 10 -10v-553q0 -6 6 -6h166q10 0 10 -10v-91q0 -10 -10 -10h-295q-10 0 -10 10v660zM278 614q-5 0 -8 2.5t-2 7.5l39 195q3 10 14 10h87q5 0 8.5 -2.5t1.5 -7.5l-68 -190q-5 -10 -11 -12.5t-20 -2.5h-41z" />
    <glyph glyph-name="lcaron" unicode="&#x13e;" horiz-adv-x="295" 
d="M271 0q-17 -5 -35.5 -7.5t-41.5 -2.5q-63 0 -94 26t-31 96v612q0 11 10 11h111q10 0 10 -11v-594q0 -24 10 -33t32 -9h32q10 0 10 -10l-3 -66q0 -10 -10 -12zM255 614q-5 0 -8 2.5t-2 7.5l39 195q3 10 14 10h87q5 0 8.5 -2.5t1.5 -7.5l-68 -190q-5 -10 -11 -12.5
t-20 -2.5h-41z" />
    <glyph glyph-name="Ldot" unicode="&#x13f;" horiz-adv-x="474" 
d="M78 670q0 10 10 10h113q10 0 10 -10v-553q0 -6 6 -6h166q10 0 10 -10v-91q0 -10 -10 -10h-295q-10 0 -10 10v660zM330 366q-10 0 -10 10v93q0 10 10 10h100q10 0 10 -10v-93q0 -10 -10 -10h-100z" />
    <glyph glyph-name="ldot" unicode="&#x140;" horiz-adv-x="377" 
d="M271 0q-17 -5 -35.5 -7.5t-41.5 -2.5q-63 0 -94 26t-31 96v612q0 11 10 11h111q10 0 10 -11v-594q0 -24 10 -33t32 -9h32q10 0 10 -10l-3 -66q0 -10 -10 -12zM271 366q-10 0 -10 10v93q0 10 10 10h100q10 0 10 -10v-93q0 -10 -10 -10h-100z" />
    <glyph glyph-name="Lslash" unicode="&#x141;" horiz-adv-x="409" 
d="M78 286q-1 3 -6 1l-44 -21q-5 -2 -7.5 0t-2.5 7v72q0 8 10 13l44 21q6 3 6 9v282q0 10 10 10h113q10 0 10 -10v-222q0 -5 6 -1l71 37q5 2 7.5 0t2.5 -7v-72q0 -8 -10 -13l-71 -37q-6 -4 -6 -7v-231q0 -6 6 -6h166q10 0 10 -10v-91q0 -10 -10 -10h-295q-10 0 -10 10v276z
" />
    <glyph glyph-name="lslash" unicode="&#x142;" horiz-adv-x="318" 
d="M281 0q-17 -5 -35.5 -7.5t-41.5 -2.5q-63 0 -94 26t-31 96v184q0 7 -5 5l-44 -21q-5 -2 -7.5 0t-2.5 7v70q0 8 10 13l44 21q5 2 5 7v326q0 11 10 11h111q10 0 10 -11v-265q0 -6 8 -2l60 31q5 2 7.5 0t2.5 -7v-70q0 -8 -10 -13l-60 -31q-8 -4 -8 -10v-227q0 -24 10 -33
t32 -9h32q10 0 10 -10l-3 -66q0 -10 -10 -12z" />
    <glyph glyph-name="Nacute" unicode="&#x143;" horiz-adv-x="659" 
d="M410 0q-10 0 -14 12l-181 490q-6 20 -14 20q-5 0 -6 -3t-1 -16l8 -493q0 -10 -10 -10h-104q-10 0 -10 10v660q0 10 10 10h171q8 0 13 -12l170 -473q4 -11 6 -13.5t6 -2.5q7 0 7 10l-7 481q0 10 10 10h106q10 0 10 -10v-660q0 -10 -10 -10h-160zM287 737q-5 0 -7.5 3.5
t0.5 6.5l108 151q3 4 8 7t10 3h114q10 0 11 -6t-3 -8l-147 -144q-9 -10 -18 -11.5t-27 -1.5h-49z" />
    <glyph glyph-name="nacute" unicode="&#x144;" horiz-adv-x="577" 
d="M390 0q-10 0 -10 10v338q0 28 -4 47t-14.5 29.5t-29.5 15t-49 4.5q-46 0 -71 -6q-10 -3 -10 -10v-418q0 -10 -10 -10h-111q-10 0 -10 10v504q0 8 10 10q20 3 46 7t54 7t55.5 5t51.5 2q66 0 109 -9.5t68.5 -31.5t35.5 -58.5t10 -91.5v-344q0 -10 -10 -10h-111zM243 604
q-10 0 -10 10l81 183q6 10 15 10h97q5 0 8 -2.5t2 -7.5l-118 -177q-7 -11 -14.5 -13.5t-25.5 -2.5h-35z" />
    <glyph glyph-name="uni0145" unicode="&#x145;" horiz-adv-x="659" 
d="M410 0q-10 0 -14 12l-181 490q-6 20 -14 20q-5 0 -6 -3t-1 -16l8 -493q0 -10 -10 -10h-104q-10 0 -10 10v660q0 10 10 10h171q8 0 13 -12l170 -473q4 -11 6 -13.5t6 -2.5q7 0 7 10l-7 481q0 10 10 10h106q10 0 10 -10v-660q0 -10 -10 -10h-160zM223 -238q-4 0 -7 2t-2 7
l68 162q4 9 12 9h95q5 0 8 -2.5t1 -6.5l-100 -157q-7 -10 -12.5 -12t-22.5 -2h-40z" />
    <glyph glyph-name="uni0146" unicode="&#x146;" horiz-adv-x="577" 
d="M390 0q-10 0 -10 10v338q0 28 -4 47t-14.5 29.5t-29.5 15t-49 4.5q-46 0 -71 -6q-10 -3 -10 -10v-418q0 -10 -10 -10h-111q-10 0 -10 10v504q0 8 10 10q20 3 46 7t54 7t55.5 5t51.5 2q66 0 109 -9.5t68.5 -31.5t35.5 -58.5t10 -91.5v-344q0 -10 -10 -10h-111zM179 -238
q-4 0 -7 2t-2 7l68 162q4 9 12 9h95q5 0 8 -2.5t1 -6.5l-100 -157q-7 -10 -12.5 -12t-22.5 -2h-40z" />
    <glyph glyph-name="Ncaron" unicode="&#x147;" horiz-adv-x="659" 
d="M410 0q-10 0 -14 12l-181 490q-6 20 -14 20q-5 0 -6 -3t-1 -16l8 -493q0 -10 -10 -10h-104q-10 0 -10 10v660q0 10 10 10h171q8 0 13 -12l170 -473q4 -11 6 -13.5t6 -2.5q7 0 7 10l-7 481q0 10 10 10h106q10 0 10 -10v-660q0 -10 -10 -10h-160zM216 899q17 0 25 -1.5
t17 -12.5l68 -68q4 -3 10 -3q7 0 12 3l70 68q10 10 17.5 12t24.5 2h51q5 0 8 -2.5t2 -7.5l-117 -150q-7 -10 -15 -10h-103q-8 0 -15 10l-117 150q-1 5 2 7.5t8 2.5h52z" />
    <glyph glyph-name="ncaron" unicode="&#x148;" horiz-adv-x="577" 
d="M390 0q-10 0 -10 10v338q0 28 -4 47t-14.5 29.5t-29.5 15t-49 4.5q-46 0 -71 -6q-10 -3 -10 -10v-418q0 -10 -10 -10h-111q-10 0 -10 10v504q0 8 10 10q20 3 46 7t54 7t55.5 5t51.5 2q66 0 109 -9.5t68.5 -31.5t35.5 -58.5t10 -91.5v-344q0 -10 -10 -10h-111zM166 796
q14 0 20.5 -2t14.5 -12l79 -94q4 -3 10 -3q7 0 12 3l81 94q8 10 13.5 12t18.5 2h48q5 0 8 -2.5t2 -7.5l-118 -174q-7 -10 -15 -10h-97q-8 0 -15 10l-119 174q0 10 10 10h47z" />
    <glyph glyph-name="Eng" unicode="&#x14a;" horiz-adv-x="659" 
d="M387 -89q38 0 52.5 11.5t14.5 51.5v18q0 12 -11 12h-33q-10 0 -14 13l-181 485q-6 20 -14 20q-5 0 -6 -3t-1 -16l8 -493q0 -10 -10 -10h-104q-10 0 -10 10v660q0 10 10 10h171q8 0 13 -12l170 -473q4 -11 6 -13.5t6 -2.5q7 0 7 10l-7 481q0 10 10 10h106q10 0 10 -10
v-630q0 -57 -4 -98.5t-20.5 -68.5t-48.5 -40t-87 -13q-24 0 -44 3t-31 8q-7 3 -7 10l5 67q1 6 5 6q8 -2 18.5 -2.5t20.5 -0.5z" />
    <glyph glyph-name="eng" unicode="&#x14b;" horiz-adv-x="577" 
d="M379 348q0 28 -4 46.5t-15 29.5t-29.5 15.5t-48.5 4.5q-14 0 -28.5 -0.5t-26 -2.5t-18.5 -5t-7 -9v-417q0 -10 -10 -10h-111q-10 0 -10 10v504q0 7 26 12.5t61.5 9.5t71.5 6.5t57 2.5q66 0 109 -9.5t68.5 -32t36 -59t10.5 -91.5v-346q0 -53 -5.5 -89t-22 -57.5t-48.5 -31
t-84 -9.5q-32 0 -57.5 4.5t-24.5 16.5l3 72q1 7 8 7q5 0 16 -1.5t22 -1.5q20 0 32 3.5t18.5 14t8.5 30.5t2 54v329z" />
    <glyph glyph-name="Omacron" unicode="&#x14c;" horiz-adv-x="647" 
d="M196 340q0 -36 2 -69.5t6 -62t10 -50t14 -33.5q12 -17 34.5 -21t60.5 -4q40 0 62 4t34 21q8 12 14 33.5t10 50t6 62t2 69.5t-2 69.5t-6 62t-10 50t-14 33.5q-12 17 -34 21t-60 4q-40 0 -62.5 -4t-34.5 -21q-8 -12 -14 -33.5t-10 -50t-6 -62t-2 -69.5zM590 340
q0 -96 -17.5 -172t-50.5 -115q-32 -38 -79.5 -50.5t-120.5 -12.5t-119.5 12.5t-78.5 50.5q-32 39 -49.5 115t-17.5 172t17.5 172t49.5 115q32 38 80 50.5t121 12.5t119 -13t78 -50q33 -39 50.5 -115t17.5 -172zM186 750q-10 0 -10 10v72q0 10 10 10h273q10 0 10 -10v-72
q0 -10 -10 -10h-273z" />
    <glyph glyph-name="omacron" unicode="&#x14d;" horiz-adv-x="582" 
d="M186 273q0 -55 8 -99.5t23 -61.5q10 -11 25.5 -16.5t47.5 -5.5q35 0 50.5 5.5t24.5 16.5q15 17 22.5 61.5t7.5 99.5q0 56 -7.5 95.5t-22.5 57.5q-9 11 -24.5 16t-48.5 5q-34 0 -49.5 -5t-25.5 -16q-15 -18 -23 -57.5t-8 -95.5zM528 272q0 -75 -17.5 -135.5t-46.5 -92.5
q-28 -29 -69.5 -41.5t-104.5 -12.5t-103 12.5t-67 41.5q-29 32 -48 92.5t-19 135.5q0 76 18.5 133t48.5 88q27 29 68.5 40.5t103.5 11.5q64 0 104 -11.5t68 -40.5q29 -32 46.5 -88.5t17.5 -132.5zM153 636q-10 0 -10 10v72q0 10 10 10h273q10 0 10 -10v-72q0 -10 -10 -10
h-273z" />
    <glyph glyph-name="Obreve" unicode="&#x14e;" horiz-adv-x="647" 
d="M196 340q0 -36 2 -69.5t6 -62t10 -50t14 -33.5q12 -17 34.5 -21t60.5 -4q40 0 62 4t34 21q8 12 14 33.5t10 50t6 62t2 69.5t-2 69.5t-6 62t-10 50t-14 33.5q-12 17 -34 21t-60 4q-40 0 -62.5 -4t-34.5 -21q-8 -12 -14 -33.5t-10 -50t-6 -62t-2 -69.5zM590 340
q0 -96 -17.5 -172t-50.5 -115q-32 -38 -79.5 -50.5t-120.5 -12.5t-119.5 12.5t-78.5 50.5q-32 39 -49.5 115t-17.5 172t17.5 172t49.5 115q32 38 80 50.5t121 12.5t119 -13t78 -50q33 -39 50.5 -115t17.5 -172zM324 809q45 0 61.5 12.5t16.5 50.5q0 12 10 12h57q10 0 10 -10
q0 -82 -37.5 -113.5t-118.5 -31.5t-118 31.5t-37 113.5q0 10 10 10h56q11 0 11 -12q0 -38 17 -50.5t62 -12.5z" />
    <glyph glyph-name="obreve" unicode="&#x14f;" horiz-adv-x="582" 
d="M186 273q0 -55 8 -99.5t23 -61.5q10 -11 25.5 -16.5t47.5 -5.5q35 0 50.5 5.5t24.5 16.5q15 17 22.5 61.5t7.5 99.5q0 56 -7.5 95.5t-22.5 57.5q-9 11 -24.5 16t-48.5 5q-34 0 -49.5 -5t-25.5 -16q-15 -18 -23 -57.5t-8 -95.5zM528 272q0 -75 -17.5 -135.5t-46.5 -92.5
q-28 -29 -69.5 -41.5t-104.5 -12.5t-103 12.5t-67 41.5q-29 32 -48 92.5t-19 135.5q0 76 18.5 133t48.5 88q27 29 68.5 40.5t103.5 11.5q64 0 104 -11.5t68 -40.5q29 -32 46.5 -88.5t17.5 -132.5zM290 685q25 0 40 4t23.5 12.5t11.5 21.5t3 32q0 8 2 10t8 2h57q10 0 10 -10
q0 -41 -8 -69.5t-26.5 -46.5t-48.5 -26.5t-73 -8.5t-72.5 8.5t-48 26.5t-26.5 46.5t-8 69.5q0 10 10 10h56q6 0 8.5 -2t2.5 -10q0 -19 3 -32t11.5 -21.5t24 -12.5t40.5 -4z" />
    <glyph glyph-name="Ohungarumlaut" unicode="&#x150;" horiz-adv-x="647" 
d="M196 340q0 -36 2 -69.5t6 -62t10 -50t14 -33.5q12 -17 34.5 -21t60.5 -4q40 0 62 4t34 21q8 12 14 33.5t10 50t6 62t2 69.5t-2 69.5t-6 62t-10 50t-14 33.5q-12 17 -34 21t-60 4q-40 0 -62.5 -4t-34.5 -21q-8 -12 -14 -33.5t-10 -50t-6 -62t-2 -69.5zM590 340
q0 -96 -17.5 -172t-50.5 -115q-32 -38 -79.5 -50.5t-120.5 -12.5t-119.5 12.5t-78.5 50.5q-32 39 -49.5 115t-17.5 172t17.5 172t49.5 115q32 38 80 50.5t121 12.5t119 -13t78 -50q33 -39 50.5 -115t17.5 -172zM173 737q-5 0 -7.5 3.5t0.5 6.5l108 151q4 4 8.5 7t9.5 3h108
q10 0 11 -6t-3 -8l-147 -144q-9 -10 -17.5 -11.5t-27.5 -1.5h-43zM392 737q-5 0 -7.5 3.5t-0.5 6.5l109 151q3 4 7.5 7t9.5 3h108q10 0 11 -6t-2 -8l-147 -144q-10 -10 -18.5 -11.5t-27.5 -1.5h-42z" />
    <glyph glyph-name="ohungarumlaut" unicode="&#x151;" horiz-adv-x="582" 
d="M186 273q0 -55 8 -99.5t23 -61.5q10 -11 25.5 -16.5t47.5 -5.5q35 0 50.5 5.5t24.5 16.5q15 17 22.5 61.5t7.5 99.5q0 56 -7.5 95.5t-22.5 57.5q-9 11 -24.5 16t-48.5 5q-34 0 -49.5 -5t-25.5 -16q-15 -18 -23 -57.5t-8 -95.5zM528 272q0 -75 -17.5 -135.5t-46.5 -92.5
q-28 -29 -69.5 -41.5t-104.5 -12.5t-103 12.5t-67 41.5q-29 32 -48 92.5t-19 135.5q0 76 18.5 133t48.5 88q27 29 68.5 40.5t103.5 11.5q64 0 104 -11.5t68 -40.5q29 -32 46.5 -88.5t17.5 -132.5zM162 601q-5 0 -8 2.5t-2 7.5l80 179q7 10 15 10h94q5 0 8 -3t2 -7l-118 -173
q-8 -11 -14.5 -13.5t-25.5 -2.5h-31zM351 601q-5 0 -8 3t-2 7l84 179q7 10 15 10h93q5 0 8 -3t2 -7l-120 -173q-8 -11 -15 -13.5t-26 -2.5h-31z" />
    <glyph glyph-name="OE" unicode="&#x152;" horiz-adv-x="824" 
d="M307 0q-76 0 -124.5 30t-77 78.5t-39.5 109t-11 122.5q0 61 11 122t39.5 109.5t77 78.5t124.5 30h453q10 0 10 -10v-89q0 -10 -10 -10h-205q-6 0 -6 -6v-158q0 -6 6 -6h190q10 0 10 -10v-83q0 -10 -10 -10h-190q-6 0 -6 -6v-175q0 -6 6 -6h221q10 0 10 -10v-91
q0 -10 -10 -10h-469zM193 335q0 -51 5 -93t19 -71.5t38.5 -46t63.5 -16.5h100q6 0 6 6v451q0 6 -5 6h-102q-39 0 -63 -17.5t-38 -48.5t-19 -74.5t-5 -95.5z" />
    <glyph glyph-name="oe" unicode="&#x153;" horiz-adv-x="879" 
d="M806 20q-29 -14 -73 -22t-96 -8q-58 0 -95.5 13t-66.5 40q-10 9 -17 9q-5 0 -8.5 -1.5t-8.5 -6.5q-26 -26 -60.5 -40t-91.5 -14q-63 0 -103 12.5t-67 41.5q-29 32 -47.5 92.5t-18.5 135.5q0 76 18.5 133t47.5 88q27 29 68.5 40.5t104.5 11.5q58 0 92.5 -12.5t60.5 -39.5
q8 -8 15 -8q4 0 7 1t8 6q28 26 61 39.5t82 13.5q61 0 101 -15.5t64 -45.5t33.5 -73t9.5 -97v-9.5t-0.5 -14t-1 -14.5t-1.5 -10q0 -23 -6 -30t-18 -7h-280q-6 0 -6 -6q0 -40 9.5 -66.5t27.5 -42t44.5 -21.5t61.5 -6q37 0 74 7.5t62 15.5q11 4 14 -5l7 -74q2 -8 -7 -11z
M185 273q0 -55 7.5 -99.5t23.5 -62.5q10 -11 25.5 -16t48.5 -5q34 0 49.5 5t25.5 16q15 18 22.5 62.5t7.5 99.5q0 56 -7.5 96t-22.5 58q-10 11 -25.5 16t-48.5 5q-34 0 -49.5 -5t-25.5 -16q-16 -18 -23.5 -58t-7.5 -96zM511 316q0 -6 6 -6h183q6 0 8.5 4.5t2.5 25.5
q0 28 -4 49.5t-14.5 36t-29 22t-47.5 7.5q-33 0 -53.5 -10.5t-32 -29.5t-15.5 -44t-4 -55z" />
    <glyph glyph-name="Racute" unicode="&#x154;" horiz-adv-x="592" 
d="M305 238q-6 11 -8.5 14.5t-7.5 4.5h-70q-8 0 -8 -7v-240q0 -10 -10 -10h-113q-10 0 -10 10v660q0 10 10 10h203q115 0 172 -42.5t57 -145.5q0 -68 -18 -111t-70 -73q-10 -9 -10 -14q0 -13 16 -39l133 -245q2 -4 1.5 -7t-6.5 -3h-133q-8 0 -12 9zM267 347q64 0 89 28
t25 95q0 34 -5 55.5t-18 34.5t-35 18t-56 5h-43q-8 0 -10.5 -1.5t-2.5 -4.5v-222q0 -7 7 -8h49zM236 737q-5 0 -7.5 3.5t0.5 6.5l108 151q3 4 8 7t10 3h114q10 0 11 -6t-3 -8l-147 -144q-9 -10 -18 -11.5t-27 -1.5h-49z" />
    <glyph glyph-name="racute" unicode="&#x155;" horiz-adv-x="358" 
d="M344 436q-36 6 -77 6q-12 0 -29 -1.5t-29 -6.5q-7 -4 -7 -11v-413q0 -12 -11 -10h-110q-10 0 -10 10v504q0 8 10 10q38 8 89 14.5t99 6.5q25 0 43 -1t38 -3q6 -1 6 -8l-5 -92q0 -6 -7 -5zM169 604q-10 0 -10 10l81 183q6 10 15 10h97q5 0 8 -2.5t2 -7.5l-118 -177
q-7 -11 -14.5 -13.5t-25.5 -2.5h-35z" />
    <glyph glyph-name="uni0156" unicode="&#x156;" horiz-adv-x="592" 
d="M305 238q-6 11 -8.5 14.5t-7.5 4.5h-70q-8 0 -8 -7v-240q0 -10 -10 -10h-113q-10 0 -10 10v660q0 10 10 10h203q115 0 172 -42.5t57 -145.5q0 -68 -18 -111t-70 -73q-10 -9 -10 -14q0 -13 16 -39l133 -245q2 -4 1.5 -7t-6.5 -3h-133q-8 0 -12 9zM267 347q64 0 89 28
t25 95q0 34 -5 55.5t-18 34.5t-35 18t-56 5h-43q-8 0 -10.5 -1.5t-2.5 -4.5v-222q0 -7 7 -8h49zM198 -238q-4 0 -7 2t-2 7l68 162q4 9 12 9h95q5 0 8 -2.5t1 -6.5l-100 -157q-7 -10 -12.5 -12t-22.5 -2h-40z" />
    <glyph glyph-name="uni0157" unicode="&#x157;" horiz-adv-x="358" 
d="M344 436q-36 6 -77 6q-12 0 -29 -1.5t-29 -6.5q-7 -4 -7 -11v-413q0 -12 -11 -10h-110q-10 0 -10 10v504q0 8 10 10q38 8 89 14.5t99 6.5q25 0 43 -1t38 -3q6 -1 6 -8l-5 -92q0 -6 -7 -5zM30 -238q-4 0 -7 2t-2 7l68 162q4 9 12 9h95q5 0 8 -2.5t1 -6.5l-100 -157
q-7 -10 -12.5 -12t-22.5 -2h-40z" />
    <glyph glyph-name="Rcaron" unicode="&#x158;" horiz-adv-x="592" 
d="M305 238q-6 11 -8.5 14.5t-7.5 4.5h-70q-8 0 -8 -7v-240q0 -10 -10 -10h-113q-10 0 -10 10v660q0 10 10 10h203q115 0 172 -42.5t57 -145.5q0 -68 -18 -111t-70 -73q-10 -9 -10 -14q0 -13 16 -39l133 -245q2 -4 1.5 -7t-6.5 -3h-133q-8 0 -12 9zM267 347q64 0 89 28
t25 95q0 34 -5 55.5t-18 34.5t-35 18t-56 5h-43q-8 0 -10.5 -1.5t-2.5 -4.5v-222q0 -7 7 -8h49zM165 899q17 0 25 -1.5t17 -12.5l68 -68q4 -3 10 -3q7 0 12 3l70 68q10 10 17.5 12t24.5 2h51q5 0 8 -2.5t2 -7.5l-117 -150q-7 -10 -15 -10h-103q-8 0 -15 10l-117 150
q-1 5 2 7.5t8 2.5h52z" />
    <glyph glyph-name="rcaron" unicode="&#x159;" horiz-adv-x="358" 
d="M344 436q-36 6 -77 6q-12 0 -29 -1.5t-29 -6.5q-7 -4 -7 -11v-413q0 -12 -11 -10h-110q-10 0 -10 10v504q0 8 10 10q38 8 89 14.5t99 6.5q25 0 43 -1t38 -3q6 -1 6 -8l-5 -92q0 -6 -7 -5zM88 796q14 0 20.5 -2t14.5 -12l79 -94q4 -3 10 -3q7 0 12 3l81 94q8 10 13.5 12
t18.5 2h48q5 0 8 -2.5t2 -7.5l-118 -174q-7 -10 -15 -10h-97q-8 0 -15 10l-119 174q0 10 10 10h47z" />
    <glyph glyph-name="Sacute" unicode="&#x15a;" horiz-adv-x="494" 
d="M426 563q-14 3 -32.5 6t-38.5 4.5t-40.5 2.5t-36.5 1q-45 0 -63 -16t-18 -54q0 -15 3.5 -27t16 -26t36 -32.5t62.5 -46.5q31 -22 55 -42.5t40.5 -43.5t24.5 -50.5t8 -64.5q0 -97 -49.5 -139t-144.5 -42q-60 0 -109.5 5.5t-78.5 12.5q-9 1 -9 8l7 90q0 7 7 7
q38 -7 76.5 -10.5t77.5 -3.5q45 0 64.5 15t19.5 57q0 14 -3 26t-16.5 28.5t-42 41t-79.5 63.5q-32 24 -52 45.5t-31.5 42.5t-15.5 43.5t-4 48.5q0 50 14 83.5t41.5 53t68.5 27.5t95 8q21 0 44.5 -1.5t45 -4.5t38.5 -6.5t26 -7.5q5 -3 5 -9l-6 -87q0 -6 -6 -6zM210 737
q-5 0 -7.5 3.5t0.5 6.5l108 151q3 4 8 7t10 3h114q10 0 11 -6t-3 -8l-147 -144q-9 -10 -18 -11.5t-27 -1.5h-49z" />
    <glyph glyph-name="sacute" unicode="&#x15b;" horiz-adv-x="420" 
d="M45 1q-6 2 -6 8l5 87q0 6 8 4q25 -5 57 -8t57 -3q27 0 43 2t24.5 8t11.5 17t3 30q0 11 -4 20.5t-14.5 20t-29 24.5t-48.5 34t-51 36.5t-34 33t-18.5 35.5t-5.5 44q0 85 46 118t144 33q36 0 73.5 -3t60.5 -8q5 -2 5 -7l-6 -89q0 -2 -2 -3.5t-5 -0.5q-23 4 -51.5 7t-50.5 3
q-47 0 -65.5 -7.5t-18.5 -39.5q0 -13 4 -22.5t14.5 -19.5t29 -22.5t48.5 -30.5q33 -21 54.5 -39t34.5 -36t18 -37.5t5 -42.5q0 -48 -13 -78.5t-37.5 -48t-61 -24t-82.5 -6.5q-42 0 -80 3t-62 8zM184 604q-10 0 -10 10l81 183q6 10 15 10h97q5 0 8 -2.5t2 -7.5l-118 -177
q-7 -11 -14.5 -13.5t-25.5 -2.5h-35z" />
    <glyph glyph-name="Scircumflex" unicode="&#x15c;" horiz-adv-x="494" 
d="M426 563q-14 3 -32.5 6t-38.5 4.5t-40.5 2.5t-36.5 1q-45 0 -63 -16t-18 -54q0 -15 3.5 -27t16 -26t36 -32.5t62.5 -46.5q31 -22 55 -42.5t40.5 -43.5t24.5 -50.5t8 -64.5q0 -97 -49.5 -139t-144.5 -42q-60 0 -109.5 5.5t-78.5 12.5q-9 1 -9 8l7 90q0 7 7 7
q38 -7 76.5 -10.5t77.5 -3.5q45 0 64.5 15t19.5 57q0 14 -3 26t-16.5 28.5t-42 41t-79.5 63.5q-32 24 -52 45.5t-31.5 42.5t-15.5 43.5t-4 48.5q0 50 14 83.5t41.5 53t68.5 27.5t95 8q21 0 44.5 -1.5t45 -4.5t38.5 -6.5t26 -7.5q5 -3 5 -9l-6 -87q0 -6 -6 -6zM385 737
q-17 0 -25 1.5t-17 12.5l-68 69q-5 3 -10 3q-8 0 -12 -3l-70 -69q-10 -10 -17.5 -12t-24.5 -2h-51q-5 0 -8 3t-2 7l117 151q7 10 15 10h103q8 0 15 -10l117 -151q1 -4 -2 -7t-8 -3h-52z" />
    <glyph glyph-name="scircumflex" unicode="&#x15d;" horiz-adv-x="420" 
d="M45 1q-6 2 -6 8l5 87q0 6 8 4q25 -5 57 -8t57 -3q27 0 43 2t24.5 8t11.5 17t3 30q0 11 -4 20.5t-14.5 20t-29 24.5t-48.5 34t-51 36.5t-34 33t-18.5 35.5t-5.5 44q0 85 46 118t144 33q36 0 73.5 -3t60.5 -8q5 -2 5 -7l-6 -89q0 -2 -2 -3.5t-5 -0.5q-23 4 -51.5 7t-50.5 3
q-47 0 -65.5 -7.5t-18.5 -39.5q0 -13 4 -22.5t14.5 -19.5t29 -22.5t48.5 -30.5q33 -21 54.5 -39t34.5 -36t18 -37.5t5 -42.5q0 -48 -13 -78.5t-37.5 -48t-61 -24t-82.5 -6.5q-42 0 -80 3t-62 8zM349 609q-14 0 -20.5 2.5t-14.5 11.5l-79 94q-5 3 -10 3q-8 0 -12 -3l-81 -94
q-8 -9 -13.5 -11.5t-19.5 -2.5h-48q-10 0 -10 10l119 174q7 10 15 10h97q8 0 15 -10l118 -174q1 -5 -2 -7.5t-8 -2.5h-46z" />
    <glyph glyph-name="Scedilla" unicode="&#x15e;" horiz-adv-x="494" 
d="M426 563q-14 3 -32.5 6t-38.5 4.5t-40.5 2.5t-36.5 1q-45 0 -63 -16t-18 -54q0 -15 3.5 -27t16 -26t36 -32.5t62.5 -46.5q31 -22 55 -42.5t40.5 -43.5t24.5 -50.5t8 -64.5q0 -90 -42.5 -132.5t-123.5 -47.5q-8 -1 -12 -10q-2 -8 -4.5 -19.5t-2.5 -18.5q0 -6 2.5 -7.5
t8.5 -1.5q46 0 69.5 -16t23.5 -61q0 -57 -40.5 -79t-121.5 -22q-16 0 -26 2t-11 9l-5 38q0 6 2.5 7.5t8.5 1.5h33q33 0 49.5 8.5t16.5 31.5q0 20 -11.5 27.5t-46.5 7.5h-23q-7 0 -7 6l15 88q0 3 -1 6t-5 3q-42 2 -74 6.5t-54 9.5q-9 1 -9 8l7 90q0 7 7 7q38 -7 76.5 -10.5
t77.5 -3.5q45 0 64.5 15t19.5 57q0 14 -3 26t-16.5 28.5t-42 41t-79.5 63.5q-32 24 -52 45.5t-31.5 42.5t-15.5 43.5t-4 48.5q0 50 14 83.5t41.5 53t68.5 27.5t95 8q21 0 44.5 -1.5t45 -4.5t38.5 -6.5t26 -7.5q5 -3 5 -9l-6 -87q0 -6 -6 -6z" />
    <glyph glyph-name="scedilla" unicode="&#x15f;" horiz-adv-x="420" 
d="M45 1q-6 2 -6 8l5 87q0 6 8 4q25 -5 57 -8t57 -3q27 0 43 2t24.5 8t11.5 17t3 30q0 11 -4 20.5t-14.5 20t-29 24.5t-48.5 34t-51 36.5t-34 33t-18.5 35.5t-5.5 44q0 85 46 118t144 33q36 0 73.5 -3t60.5 -8q5 -2 5 -7l-6 -89q0 -2 -2 -3.5t-5 -0.5q-23 4 -51.5 7t-50.5 3
q-47 0 -65.5 -7.5t-18.5 -39.5q0 -13 4 -22.5t14.5 -19.5t29 -22.5t48.5 -30.5q33 -21 54.5 -39t34.5 -36t18 -37.5t5 -42.5q0 -42 -10 -70t-28.5 -46t-46 -27t-62.5 -12q-9 0 -12 -8q-2 -8 -4.5 -19.5t-2.5 -18.5q0 -6 2.5 -7.5t8.5 -1.5q46 0 69.5 -16t23.5 -61
q0 -57 -40.5 -79t-121.5 -22q-16 0 -26 2t-11 9l-5 38q0 6 2.5 7.5t8.5 1.5h33q33 0 49.5 8.5t16.5 31.5q0 20 -11.5 27.5t-46.5 7.5h-23q-7 0 -7 6l15 88q0 5 -5 5q-32 1 -57.5 4t-44.5 6z" />
    <glyph glyph-name="Scaron" unicode="&#x160;" horiz-adv-x="494" 
d="M426 563q-14 3 -32.5 6t-38.5 4.5t-40.5 2.5t-36.5 1q-45 0 -63 -16t-18 -54q0 -15 3.5 -27t16 -26t36 -32.5t62.5 -46.5q31 -22 55 -42.5t40.5 -43.5t24.5 -50.5t8 -64.5q0 -97 -49.5 -139t-144.5 -42q-60 0 -109.5 5.5t-78.5 12.5q-9 1 -9 8l7 90q0 7 7 7
q38 -7 76.5 -10.5t77.5 -3.5q45 0 64.5 15t19.5 57q0 14 -3 26t-16.5 28.5t-42 41t-79.5 63.5q-32 24 -52 45.5t-31.5 42.5t-15.5 43.5t-4 48.5q0 50 14 83.5t41.5 53t68.5 27.5t95 8q21 0 44.5 -1.5t45 -4.5t38.5 -6.5t26 -7.5q5 -3 5 -9l-6 -87q0 -6 -6 -6zM141 899
q17 0 25 -1.5t17 -12.5l68 -68q4 -3 10 -3q7 0 12 3l70 68q10 10 17.5 12t24.5 2h51q5 0 8 -2.5t2 -7.5l-117 -150q-7 -10 -15 -10h-103q-8 0 -15 10l-117 150q-1 5 2 7.5t8 2.5h52z" />
    <glyph glyph-name="scaron" unicode="&#x161;" horiz-adv-x="420" 
d="M45 1q-6 2 -6 8l5 87q0 6 8 4q25 -5 57 -8t57 -3q27 0 43 2t24.5 8t11.5 17t3 30q0 11 -4 20.5t-14.5 20t-29 24.5t-48.5 34t-51 36.5t-34 33t-18.5 35.5t-5.5 44q0 85 46 118t144 33q36 0 73.5 -3t60.5 -8q5 -2 5 -7l-6 -89q0 -2 -2 -3.5t-5 -0.5q-23 4 -51.5 7t-50.5 3
q-47 0 -65.5 -7.5t-18.5 -39.5q0 -13 4 -22.5t14.5 -19.5t29 -22.5t48.5 -30.5q33 -21 54.5 -39t34.5 -36t18 -37.5t5 -42.5q0 -48 -13 -78.5t-37.5 -48t-61 -24t-82.5 -6.5q-42 0 -80 3t-62 8zM92 796q14 0 20.5 -2t14.5 -12l79 -94q4 -3 10 -3q7 0 12 3l81 94
q8 10 13.5 12t18.5 2h48q5 0 8 -2.5t2 -7.5l-118 -174q-7 -10 -15 -10h-97q-8 0 -15 10l-119 174q0 10 10 10h47z" />
    <glyph glyph-name="uni0162" unicode="&#x162;" horiz-adv-x="448" 
d="M157 564q0 6 -6 6h-128q-10 0 -10 10v90q0 10 10 10h402q10 0 10 -10v-90q0 -10 -10 -10h-129q-6 0 -6 -6v-554q0 -10 -10 -10h-113q-10 0 -10 10v554zM115 -238q-4 0 -7 2t-2 7l68 162q4 9 12 9h95q5 0 8 -2.5t1 -6.5l-100 -157q-7 -10 -12.5 -12t-22.5 -2h-40z" />
    <glyph glyph-name="uni0163" unicode="&#x163;" horiz-adv-x="346" 
d="M303 -1q-17 -4 -38.5 -6.5t-42.5 -2.5q-121 0 -121 110v328q0 6 -6 6h-69q-10 0 -10 10v81q0 10 10 10h69q6 0 6 6v125q0 10 10 10h111q10 0 10 -10v-125q0 -6 6 -6h84q10 0 10 -10v-81q0 -10 -10 -10h-84q-6 0 -6 -6v-297q0 -25 9.5 -33.5t33.5 -8.5h31q10 0 10 -10
l-3 -67q0 -11 -10 -13zM103 -238q-4 0 -7 2t-2 7l68 162q4 9 12 9h95q5 0 8 -2.5t1 -6.5l-100 -157q-7 -10 -12.5 -12t-22.5 -2h-40z" />
    <glyph glyph-name="uni021A" unicode="&#x21a;" horiz-adv-x="448" 
d="M157 564q0 6 -6 6h-128q-10 0 -10 10v90q0 10 10 10h402q10 0 10 -10v-90q0 -10 -10 -10h-129q-6 0 -6 -6v-554q0 -10 -10 -10h-113q-10 0 -10 10v554zM115 -238q-4 0 -7 2t-2 7l68 162q4 9 12 9h95q5 0 8 -2.5t1 -6.5l-100 -157q-7 -10 -12.5 -12t-22.5 -2h-40z" />
    <glyph glyph-name="uni021B" unicode="&#x21b;" horiz-adv-x="346" 
d="M303 -1q-17 -4 -38.5 -6.5t-42.5 -2.5q-121 0 -121 110v328q0 6 -6 6h-69q-10 0 -10 10v81q0 10 10 10h69q6 0 6 6v125q0 10 10 10h111q10 0 10 -10v-125q0 -6 6 -6h84q10 0 10 -10v-81q0 -10 -10 -10h-84q-6 0 -6 -6v-297q0 -25 9.5 -33.5t33.5 -8.5h31q10 0 10 -10
l-3 -67q0 -11 -10 -13zM103 -238q-4 0 -7 2t-2 7l68 162q4 9 12 9h95q5 0 8 -2.5t1 -6.5l-100 -157q-7 -10 -12.5 -12t-22.5 -2h-40z" />
    <glyph glyph-name="Tcaron" unicode="&#x164;" horiz-adv-x="448" 
d="M157 564q0 6 -6 6h-128q-10 0 -10 10v90q0 10 10 10h402q10 0 10 -10v-90q0 -10 -10 -10h-129q-6 0 -6 -6v-554q0 -10 -10 -10h-113q-10 0 -10 10v554zM104 899q17 0 25 -1.5t17 -12.5l68 -68q4 -3 10 -3q7 0 12 3l70 68q10 10 17.5 12t24.5 2h51q5 0 8 -2.5t2 -7.5
l-117 -150q-7 -10 -15 -10h-103q-8 0 -15 10l-117 150q-1 5 2 7.5t8 2.5h52z" />
    <glyph glyph-name="tcaron" unicode="&#x165;" horiz-adv-x="346" 
d="M303 -1q-17 -4 -38.5 -6.5t-42.5 -2.5q-121 0 -121 110v328q0 6 -6 6h-69q-10 0 -10 10v81q0 10 10 10h69q6 0 6 6v125q0 10 10 10h111q10 0 10 -10v-125q0 -6 6 -6h84q10 0 10 -10v-81q0 -10 -10 -10h-84q-6 0 -6 -6v-297q0 -25 9.5 -33.5t33.5 -8.5h31q10 0 10 -10
l-3 -67q0 -11 -10 -13zM301 614q-5 0 -8 2.5t-2 7.5l39 195q3 10 14 10h87q5 0 8.5 -2.5t1.5 -7.5l-68 -190q-5 -10 -11 -12.5t-20 -2.5h-41z" />
    <glyph glyph-name="Tbar" unicode="&#x166;" horiz-adv-x="448" 
d="M157 320q-2 5 -6 5h-66q-10 0 -10 10v63q0 10 10 10h66q5 0 6 4v152q0 6 -6 6h-128q-10 0 -10 10v90q0 10 10 10h402q10 0 10 -10v-90q0 -10 -10 -10h-129q-6 0 -6 -6v-150q0 -6 6 -6h61q10 0 10 -10v-63q0 -10 -10 -10h-61q-6 0 -6 -5v-310q0 -10 -10 -10h-113
q-10 0 -10 10v310z" />
    <glyph glyph-name="tbar" unicode="&#x167;" horiz-adv-x="346" 
d="M303 -1q-17 -4 -38.5 -6.5t-42.5 -2.5q-121 0 -121 110v134q-2 5 -6 5h-51q-10 0 -10 10v57q0 10 10 10h51q6 0 6 6v106q0 6 -6 6h-69q-10 0 -10 10v81q0 10 10 10h69q6 0 6 6v125q0 10 10 10h111q10 0 10 -10v-125q0 -6 6 -6h84q10 0 10 -10v-81q0 -10 -10 -10h-84
q-6 0 -6 -6v-107q0 -5 5 -5h55q10 0 10 -10v-57q0 -10 -10 -10h-55q-5 0 -5 -5v-103q0 -25 9.5 -33.5t33.5 -8.5h31q10 0 10 -10l-3 -67q0 -11 -10 -13z" />
    <glyph glyph-name="Utilde" unicode="&#x168;" horiz-adv-x="630" 
d="M558 153q0 -41 -17.5 -71.5t-50 -50.5t-77.5 -30.5t-99 -10.5q-125 0 -183.5 41t-58.5 122v517q0 10 10 10h113q10 0 10 -10v-478q0 -29 9 -47t24 -27.5t35 -12.5t43 -3q22 0 42 3t35 13t24 27.5t9 47.5v477q0 10 10 10h112q10 0 10 -10v-517zM331 849q19 -13 31 -18.5
t22 -5.5q15 0 22 11t11 36q0 4 7 4h53q7 0 7 -9q0 -23 -6 -45.5t-18 -40t-30 -28.5t-42 -11q-23 0 -42 6t-46 25q-20 14 -30.5 18.5t-21.5 4.5q-14 0 -22 -10t-12 -35q-2 -6 -7 -6h-54q-7 0 -7 9q0 25 7 48t20 40t31 27t40 10q25 0 42.5 -6t44.5 -24z" />
    <glyph glyph-name="utilde" unicode="&#x169;" horiz-adv-x="577" 
d="M187 535q10 0 10 -10v-332q0 -29 4.5 -48t15.5 -30t31 -16t50 -5q39 0 68 6q9 3 9 10v415q0 10 10 10h110q10 0 10 -10v-504q0 -8 -10 -10q-41 -8 -96.5 -14.5t-102.5 -6.5q-66 0 -110 10t-71 32.5t-38 59.5t-11 92v341q0 10 10 10h111zM311 723q19 -13 31 -19t22 -6
q15 0 22 11t11 36q1 4 7 4h53q7 0 7 -9q0 -23 -6 -45.5t-18 -40t-30 -28.5t-42 -11q-23 0 -42 6t-46 25q-20 14 -30 18.5t-21 4.5q-14 0 -22 -10t-13 -34q0 -7 -7 -7h-54q-7 0 -7 9q0 25 7 48t20 40t31 27t41 10q25 0 42.5 -5.5t43.5 -23.5z" />
    <glyph glyph-name="Umacron" unicode="&#x16a;" horiz-adv-x="630" 
d="M558 153q0 -41 -17.5 -71.5t-50 -50.5t-77.5 -30.5t-99 -10.5q-125 0 -183.5 41t-58.5 122v517q0 10 10 10h113q10 0 10 -10v-478q0 -29 9 -47t24 -27.5t35 -12.5t43 -3q22 0 42 3t35 13t24 27.5t9 47.5v477q0 10 10 10h112q10 0 10 -10v-517zM178 750q-10 0 -10 10v72
q0 10 10 10h273q10 0 10 -10v-72q0 -10 -10 -10h-273z" />
    <glyph glyph-name="umacron" unicode="&#x16b;" horiz-adv-x="577" 
d="M187 535q10 0 10 -10v-332q0 -29 4.5 -48t15.5 -30t31 -16t50 -5q39 0 68 6q9 3 9 10v415q0 10 10 10h110q10 0 10 -10v-504q0 -8 -10 -10q-41 -8 -96.5 -14.5t-102.5 -6.5q-66 0 -110 10t-71 32.5t-38 59.5t-11 92v341q0 10 10 10h111zM155 636q-10 0 -10 10v72
q0 10 10 10h273q10 0 10 -10v-72q0 -10 -10 -10h-273z" />
    <glyph glyph-name="Ubreve" unicode="&#x16c;" horiz-adv-x="630" 
d="M558 153q0 -41 -17.5 -71.5t-50 -50.5t-77.5 -30.5t-99 -10.5q-125 0 -183.5 41t-58.5 122v517q0 10 10 10h113q10 0 10 -10v-478q0 -29 9 -47t24 -27.5t35 -12.5t43 -3q22 0 42 3t35 13t24 27.5t9 47.5v477q0 10 10 10h112q10 0 10 -10v-517zM316 809q45 0 61.5 12.5
t16.5 50.5q0 12 10 12h57q10 0 10 -10q0 -82 -37.5 -113.5t-118.5 -31.5t-118 31.5t-37 113.5q0 10 10 10h56q11 0 11 -12q0 -38 17 -50.5t62 -12.5z" />
    <glyph glyph-name="ubreve" unicode="&#x16d;" horiz-adv-x="577" 
d="M187 535q10 0 10 -10v-332q0 -29 4.5 -48t15.5 -30t31 -16t50 -5q39 0 68 6q9 3 9 10v415q0 10 10 10h110q10 0 10 -10v-504q0 -8 -10 -10q-41 -8 -96.5 -14.5t-102.5 -6.5q-66 0 -110 10t-71 32.5t-38 59.5t-11 92v341q0 10 10 10h111zM291 685q25 0 40 4t23.5 12.5
t11.5 21.5t3 32q0 8 2 10t8 2h57q10 0 10 -10q0 -41 -8 -69.5t-26.5 -46.5t-48.5 -26.5t-73 -8.5t-72.5 8.5t-48 26.5t-26.5 46.5t-8 69.5q0 10 10 10h56q6 0 8.5 -2t2.5 -10q0 -19 3 -32t11.5 -21.5t24 -12.5t40.5 -4z" />
    <glyph glyph-name="Uring" unicode="&#x16e;" horiz-adv-x="630" 
d="M558 153q0 -41 -17.5 -71.5t-50 -50.5t-77.5 -30.5t-99 -10.5q-125 0 -183.5 41t-58.5 122v517q0 10 10 10h113q10 0 10 -10v-478q0 -29 9 -47t24 -27.5t35 -12.5t43 -3q22 0 42 3t35 13t24 27.5t9 47.5v477q0 10 10 10h112q10 0 10 -10v-517zM381 841q0 38 -17 49.5
t-48 11.5q-35 0 -51 -11.5t-16 -49.5q0 -20 4.5 -33t13.5 -20t21.5 -9.5t27.5 -2.5q34 0 49.5 12t15.5 53zM184 835q0 68 34 94t98 26q63 0 97.5 -25t34.5 -85q0 -38 -10 -61.5t-28 -37t-42 -18.5t-52 -5t-52 5t-42 17.5t-28 34t-10 55.5z" />
    <glyph glyph-name="uring" unicode="&#x16f;" horiz-adv-x="577" 
d="M187 535q10 0 10 -10v-332q0 -29 4.5 -48t15.5 -30t31 -16t50 -5q39 0 68 6q9 3 9 10v415q0 10 10 10h110q10 0 10 -10v-504q0 -8 -10 -10q-41 -8 -96.5 -14.5t-102.5 -6.5q-66 0 -110 10t-71 32.5t-38 59.5t-11 92v341q0 10 10 10h111zM355 719q0 39 -16.5 50.5
t-46.5 11.5q-35 0 -50.5 -12t-15.5 -50q0 -42 17.5 -54.5t48.5 -12.5q33 0 48 12.5t15 54.5zM163 712q0 70 33 97t96 27q62 0 95 -26.5t33 -86.5q0 -39 -10 -63.5t-27.5 -38.5t-41 -19t-49.5 -5t-49.5 5t-41 18t-28 35t-10.5 57z" />
    <glyph glyph-name="Uhungarumlaut" unicode="&#x170;" horiz-adv-x="630" 
d="M558 153q0 -41 -17.5 -71.5t-50 -50.5t-77.5 -30.5t-99 -10.5q-125 0 -183.5 41t-58.5 122v517q0 10 10 10h113q10 0 10 -10v-478q0 -29 9 -47t24 -27.5t35 -12.5t43 -3q22 0 42 3t35 13t24 27.5t9 47.5v477q0 10 10 10h112q10 0 10 -10v-517zM141 737q-5 0 -7.5 3.5
t0.5 6.5l108 151q4 4 8.5 7t9.5 3h108q10 0 11 -6t-3 -8l-147 -144q-9 -10 -17.5 -11.5t-27.5 -1.5h-43zM360 737q-5 0 -7.5 3.5t-0.5 6.5l109 151q3 4 7.5 7t9.5 3h108q10 0 11 -6t-2 -8l-147 -144q-10 -10 -18.5 -11.5t-27.5 -1.5h-42z" />
    <glyph glyph-name="uhungarumlaut" unicode="&#x171;" horiz-adv-x="577" 
d="M187 535q10 0 10 -10v-332q0 -29 4.5 -48t15.5 -30t31 -16t50 -5q39 0 68 6q9 3 9 10v415q0 10 10 10h110q10 0 10 -10v-504q0 -8 -10 -10q-41 -8 -96.5 -14.5t-102.5 -6.5q-66 0 -110 10t-71 32.5t-38 59.5t-11 92v341q0 10 10 10h111zM152 601q-5 0 -8 2.5t-2 7.5
l80 179q7 10 15 10h94q5 0 8 -3t2 -7l-118 -173q-8 -11 -14.5 -13.5t-25.5 -2.5h-31zM341 601q-5 0 -8 3t-2 7l84 179q7 10 15 10h93q5 0 8 -3t2 -7l-120 -173q-8 -11 -15 -13.5t-26 -2.5h-31z" />
    <glyph glyph-name="Uogonek" unicode="&#x172;" horiz-adv-x="630" 
d="M332 -117q0 -22 10 -30t30 -8q10 0 20.5 1t20.5 3q8 2 12 2q6 0 6 -10v-42q0 -9 -8 -12q-16 -6 -37.5 -9t-45.5 -3q-25 0 -44.5 4t-33.5 14.5t-21.5 28.5t-7.5 45q0 32 14.5 60t50.5 63q-116 3 -171 43.5t-55 119.5v517q0 10 10 10h113q10 0 10 -10v-478q0 -29 9 -47
t24 -27.5t35 -12.5t43 -3q22 0 42 3t35 13t24 27.5t9 47.5v477q0 10 10 10h112q10 0 10 -10v-517q0 -66 -45 -105t-122 -52q-29 -33 -44 -58t-15 -55z" />
    <glyph glyph-name="uogonek" unicode="&#x173;" horiz-adv-x="577" 
d="M402 -116q0 -22 10 -30t30 -8q10 0 20.5 1t20.5 3q8 2 12 2q6 0 6 -10v-42q0 -9 -8 -12q-16 -6 -37.5 -9t-45.5 -3q-25 0 -44.5 4t-33.5 14.5t-21.5 28.5t-7.5 45q0 32 15 61t53 65q-20 -2 -39 -3t-36 -1q-66 0 -110 10t-71 32.5t-38 59.5t-11 92v341q0 10 10 10h111
q10 0 10 -10v-332q0 -29 4.5 -48t15.5 -30t31 -16t50 -5q39 0 68 6q9 3 9 10v415q0 10 10 10h110q10 0 10 -10v-504q0 -8 -10 -10l-25 -5q-33 -37 -50.5 -63.5t-17.5 -58.5z" />
    <glyph glyph-name="Wcircumflex" unicode="&#x174;" horiz-adv-x="882" 
d="M743 11q-4 -11 -15 -11h-182q-9 0 -12 11q-4 15 -9.5 46t-13 72t-16 88.5t-17 96t-16.5 94.5t-14 85q-1 8 -10 8q-10 0 -11 -8q-6 -39 -13 -85t-15 -94t-16 -95.5t-15 -88.5t-13 -72t-10 -47q-2 -11 -14 -11h-183q-10 0 -12 11q-7 39 -17.5 99t-22 129t-23 140t-21 131.5
t-16 104t-7.5 56.5q0 9 10 9h121q8 0 9 -10q3 -29 8 -73t11.5 -94.5t14 -104.5t14.5 -102.5t13.5 -88.5t10.5 -63q3 -12 14 -12q8 0 10.5 2.5t4.5 9.5q4 22 11 58.5t14.5 81.5t16 95t16 98.5t14.5 93.5t12 79q0 10 10 10h154q10 0 10 -10q5 -34 12 -78.5t15 -93t16.5 -98
t16.5 -94.5t15 -82t12 -60q2 -6 4 -9t10 -3t11 2.5t4 10.5q4 23 10 63t12.5 88.5t14 102t14 104t11.5 94.5t8 73q1 10 13 10h117q9 0 9 -10q-3 -19 -10 -64.5t-16.5 -106t-21 -130t-23 -136.5t-22 -125.5t-17.5 -96.5zM564 737q-17 0 -25 1.5t-17 12.5l-68 69q-5 3 -10 3
q-8 0 -12 -3l-70 -69q-10 -10 -17.5 -12t-24.5 -2h-51q-5 0 -8 3t-2 7l117 151q7 10 15 10h103q8 0 15 -10l117 -151q1 -4 -2 -7t-8 -3h-52z" />
    <glyph glyph-name="wcircumflex" unicode="&#x175;" horiz-adv-x="868" 
d="M721 8q-3 -8 -11 -8h-176q-6 0 -8 8q-8 35 -18 83t-21 101.5t-22 108.5t-20 104q-1 6 -10 6q-10 0 -11 -6q-9 -49 -21 -104.5t-24 -109t-23.5 -101.5t-19.5 -82q-2 -8 -11 -8h-180q-5 0 -7 8q-7 29 -18 74t-23 96.5t-24.5 106.5t-23 102.5t-18.5 84.5t-11 54q0 9 7 9h126
q7 0 7 -9q7 -48 17 -104t20.5 -112t20 -106.5t17.5 -87.5q1 -6 12 -6t12 6q8 37 18.5 87.5t21.5 106.5t21.5 112t18.5 104q3 9 10 9h171q6 0 8 -9q8 -48 18.5 -104t21.5 -112t21.5 -106.5t18.5 -87.5q1 -6 12 -6q10 0 12 6q8 37 19 87.5t22.5 106.5t22 112t18.5 104
q3 9 10 9h118q6 0 6 -10q-3 -16 -11.5 -52.5t-20 -84t-25 -102t-26.5 -106.5t-24.5 -97t-19.5 -75zM556 609q-14 0 -20.5 2.5t-14.5 11.5l-79 94q-5 3 -10 3q-8 0 -12 -3l-81 -94q-8 -9 -13.5 -11.5t-19.5 -2.5h-48q-10 0 -10 10l119 174q7 10 15 10h97q8 0 15 -10l118 -174
q1 -5 -2 -7.5t-8 -2.5h-46z" />
    <glyph glyph-name="Ycircumflex" unicode="&#x176;" horiz-adv-x="552" 
d="M408 669q7 11 17 11h117q9 0 6 -10q-15 -32 -38 -79.5t-48 -97.5t-49 -96t-40 -75q-20 -36 -27.5 -51t-7.5 -26v-235q0 -10 -10 -10h-113q-10 0 -10 10v236q0 6 -1.5 11.5t-4.5 13t-9 18.5t-15 28q-11 20 -26 50t-32 64.5t-34.5 71t-32.5 69l-27 58.5t-18 40q-3 10 7 10
h124q10 0 14 -11q11 -27 25.5 -62.5t29.5 -71.5t30.5 -70.5t27.5 -59.5q5 -11 7.5 -14t7.5 -3t8 3t8 14q12 24 27.5 57t31 69.5t30 72.5t25.5 65zM400 737q-17 0 -25 1.5t-17 12.5l-68 69q-5 3 -10 3q-8 0 -12 -3l-70 -69q-10 -10 -17.5 -12t-24.5 -2h-51q-5 0 -8 3t-2 7
l117 151q7 10 15 10h103q8 0 15 -10l117 -151q1 -4 -2 -7t-8 -3h-52z" />
    <glyph glyph-name="ycircumflex" unicode="&#x177;" horiz-adv-x="503" 
d="M224 12q0 5 -13 5h-29q-16 0 -25 6t-12 15q-11 32 -24 76t-26.5 92.5t-26.5 98.5t-24.5 93.5t-19 77.5t-10.5 50q0 9 9 9h121q7 0 9 -9q9 -47 20 -102t23 -110t23.5 -106t21.5 -90q1 -6 13 -6q13 0 15 7l6 20q10 40 21 89.5t22 101.5t21 102.5t18 93.5q1 9 14 9h109
q8 0 8 -10q-3 -17 -12.5 -55t-22 -87t-27.5 -105t-29.5 -108t-27.5 -96t-22 -70q-19 -55 -40 -90.5t-48 -56.5t-62 -29t-82 -8q-17 0 -30 1t-20 3q-10 2 -10 12l-3 64q0 8 2.5 10t9.5 2q37 0 61 2.5t40.5 11t28 23.5t22.5 39q5 11 6.5 15.5t1.5 8.5zM381 609
q-14 0 -20.5 2.5t-14.5 11.5l-79 94q-5 3 -10 3q-8 0 -12 -3l-81 -94q-8 -9 -13.5 -11.5t-19.5 -2.5h-48q-10 0 -10 10l119 174q7 10 15 10h97q8 0 15 -10l118 -174q1 -5 -2 -7.5t-8 -2.5h-46z" />
    <glyph glyph-name="Ydieresis" unicode="&#x178;" horiz-adv-x="552" 
d="M408 669q7 11 17 11h117q9 0 6 -10q-15 -32 -38 -79.5t-48 -97.5t-49 -96t-40 -75q-20 -36 -27.5 -51t-7.5 -26v-235q0 -10 -10 -10h-113q-10 0 -10 10v236q0 6 -1.5 11.5t-4.5 13t-9 18.5t-15 28q-11 20 -26 50t-32 64.5t-34.5 71t-32.5 69l-27 58.5t-18 40q-3 10 7 10
h124q10 0 14 -11q11 -27 25.5 -62.5t29.5 -71.5t30.5 -70.5t27.5 -59.5q5 -11 7.5 -14t7.5 -3t8 3t8 14q12 24 27.5 57t31 69.5t30 72.5t25.5 65zM131 751q-10 0 -10 10v87q0 10 10 10h92q10 0 10 -10v-87q0 -10 -10 -10h-92zM335 751q-10 0 -10 10v87q0 10 10 10h93
q10 0 10 -10v-87q0 -10 -10 -10h-93z" />
    <glyph glyph-name="Zacute" unicode="&#x179;" horiz-adv-x="473" 
d="M40 0q-10 0 -10 10v93q0 5 2.5 12t10.5 21l239 405q4 8 5 12t1 8q0 10 -9 10h-212q-10 0 -10 10v89q0 10 10 10h365q10 0 10 -10v-97q0 -5 -2 -11.5t-10 -19.5l-241 -405q-2 -4 -3 -8t-1 -9q0 -6 1.5 -7.5t4.5 -1.5h239q10 0 10 -10v-91q0 -10 -11 -10h-389zM197 737
q-5 0 -7.5 3.5t0.5 6.5l108 151q3 4 8 7t10 3h114q10 0 11 -6t-3 -8l-147 -144q-9 -10 -18 -11.5t-27 -1.5h-49z" />
    <glyph glyph-name="zacute" unicode="&#x17a;" horiz-adv-x="462" 
d="M46 0q-10 0 -10 10v86q0 11 13 28l218 281q5 7 6 11t1 9q0 6 -2.5 7.5t-8.5 1.5h-203q-10 0 -10 10v81q0 10 10 10h349q11 0 11 -11v-79q0 -7 -2 -17t-7 -17l-223 -284q-3 -4 -3.5 -7.5t-0.5 -8.5q0 -8 8 -8h227q10 0 10 -10v-83q0 -10 -10 -10h-373zM204 604
q-10 0 -10 10l81 183q6 10 15 10h97q5 0 8 -2.5t2 -7.5l-118 -177q-7 -11 -14.5 -13.5t-25.5 -2.5h-35z" />
    <glyph glyph-name="Zdotaccent" unicode="&#x17b;" horiz-adv-x="473" 
d="M40 0q-10 0 -10 10v93q0 5 2.5 12t10.5 21l239 405q4 8 5 12t1 8q0 10 -9 10h-212q-10 0 -10 10v89q0 10 10 10h365q10 0 10 -10v-97q0 -5 -2 -11.5t-10 -19.5l-241 -405q-2 -4 -3 -8t-1 -9q0 -6 1.5 -7.5t4.5 -1.5h239q10 0 10 -10v-91q0 -10 -11 -10h-389zM196 747
q-10 0 -10 10v93q0 10 10 10h100q10 0 10 -10v-93q0 -10 -10 -10h-100z" />
    <glyph glyph-name="zdotaccent" unicode="&#x17c;" horiz-adv-x="462" 
d="M46 0q-10 0 -10 10v86q0 11 13 28l218 281q5 7 6 11t1 9q0 6 -2.5 7.5t-8.5 1.5h-203q-10 0 -10 10v81q0 10 10 10h349q11 0 11 -11v-79q0 -7 -2 -17t-7 -17l-223 -284q-3 -4 -3.5 -7.5t-0.5 -8.5q0 -8 8 -8h227q10 0 10 -10v-83q0 -10 -10 -10h-373zM190 626
q-10 0 -10 10v93q0 10 10 10h100q10 0 10 -10v-93q0 -10 -10 -10h-100z" />
    <glyph glyph-name="Zcaron" unicode="&#x17d;" horiz-adv-x="473" 
d="M40 0q-10 0 -10 10v93q0 5 2.5 12t10.5 21l239 405q4 8 5 12t1 8q0 10 -9 10h-212q-10 0 -10 10v89q0 10 10 10h365q10 0 10 -10v-97q0 -5 -2 -11.5t-10 -19.5l-241 -405q-2 -4 -3 -8t-1 -9q0 -6 1.5 -7.5t4.5 -1.5h239q10 0 10 -10v-91q0 -10 -11 -10h-389zM129 899
q17 0 25 -1.5t17 -12.5l68 -68q4 -3 10 -3q7 0 12 3l70 68q10 10 17.5 12t24.5 2h51q5 0 8 -2.5t2 -7.5l-117 -150q-7 -10 -15 -10h-103q-8 0 -15 10l-117 150q-1 5 2 7.5t8 2.5h52z" />
    <glyph glyph-name="zcaron" unicode="&#x17e;" horiz-adv-x="462" 
d="M46 0q-10 0 -10 10v86q0 11 13 28l218 281q5 7 6 11t1 9q0 6 -2.5 7.5t-8.5 1.5h-203q-10 0 -10 10v81q0 10 10 10h349q11 0 11 -11v-79q0 -7 -2 -17t-7 -17l-223 -284q-3 -4 -3.5 -7.5t-0.5 -8.5q0 -8 8 -8h227q10 0 10 -10v-83q0 -10 -10 -10h-373zM114 796
q14 0 20.5 -2t14.5 -12l79 -94q4 -3 10 -3q7 0 12 3l81 94q8 10 13.5 12t18.5 2h48q5 0 8 -2.5t2 -7.5l-118 -174q-7 -10 -15 -10h-97q-8 0 -15 10l-119 174q0 10 10 10h47z" />
    <glyph glyph-name="florin" unicode="&#x192;" 
d="M271 -59q-3 -21 -13 -43.5t-29 -41t-47.5 -31t-68.5 -12.5q-28 1 -44 2.5t-32 6.5q-5 2 -4 10l12 75q2 8 7 6q15 -3 36 -3q37 0 50 19.5t18 50.5l56 351q0 8 -10 8h-89q-9 0 -9 8v2l11 77q2 10 11 10h90q13 0 14 12l26 157q3 20 12.5 43t28.5 42.5t50 32t78 12.5
q63 0 84 -12q5 -3 5 -10l-11 -70q-2 -8 -8 -6q-9 2 -23.5 4.5t-31.5 2.5q-36 0 -49 -19t-17 -47l-21 -135q0 -7 11 -7h101q9 0 9 -8v-2l-12 -77q0 -10 -10 -10h-101q-8 0 -11 -2t-4 -10z" />
    <glyph glyph-name="uni0218" unicode="&#x218;" horiz-adv-x="494" 
d="M426 563q-14 3 -32.5 6t-38.5 4.5t-40.5 2.5t-36.5 1q-45 0 -63 -16t-18 -54q0 -15 3.5 -27t16 -26t36 -32.5t62.5 -46.5q31 -22 55 -42.5t40.5 -43.5t24.5 -50.5t8 -64.5q0 -97 -49.5 -139t-144.5 -42q-60 0 -109.5 5.5t-78.5 12.5q-9 1 -9 8l7 90q0 7 7 7
q38 -7 76.5 -10.5t77.5 -3.5q45 0 64.5 15t19.5 57q0 14 -3 26t-16.5 28.5t-42 41t-79.5 63.5q-32 24 -52 45.5t-31.5 42.5t-15.5 43.5t-4 48.5q0 50 14 83.5t41.5 53t68.5 27.5t95 8q21 0 44.5 -1.5t45 -4.5t38.5 -6.5t26 -7.5q5 -3 5 -9l-6 -87q0 -6 -6 -6zM153 -238
q-4 0 -7 2t-2 7l68 162q4 9 12 9h95q5 0 8 -2.5t1 -6.5l-100 -157q-7 -10 -12.5 -12t-22.5 -2h-40z" />
    <glyph glyph-name="uni0219" unicode="&#x219;" horiz-adv-x="420" 
d="M45 1q-6 2 -6 8l5 87q0 6 8 4q25 -5 57 -8t57 -3q27 0 43 2t24.5 8t11.5 17t3 30q0 11 -4 20.5t-14.5 20t-29 24.5t-48.5 34t-51 36.5t-34 33t-18.5 35.5t-5.5 44q0 85 46 118t144 33q36 0 73.5 -3t60.5 -8q5 -2 5 -7l-6 -89q0 -2 -2 -3.5t-5 -0.5q-23 4 -51.5 7t-50.5 3
q-47 0 -65.5 -7.5t-18.5 -39.5q0 -13 4 -22.5t14.5 -19.5t29 -22.5t48.5 -30.5q33 -21 54.5 -39t34.5 -36t18 -37.5t5 -42.5q0 -48 -13 -78.5t-37.5 -48t-61 -24t-82.5 -6.5q-42 0 -80 3t-62 8zM111 -238q-4 0 -7 2t-2 7l68 162q4 9 12 9h95q5 0 8 -2.5t1 -6.5l-100 -157
q-7 -10 -12.5 -12t-22.5 -2h-40z" />
    <glyph glyph-name="uni0237" unicode="&#x237;" horiz-adv-x="282" 
d="M75 525q0 10 10 10h112q10 0 10 -10v-524q0 -53 -5 -89t-22 -57.5t-49 -31t-85 -9.5q-34 0 -58 4.5t-23 16.5l3 72q1 8 11 8q6 -2 15 -2.5t18 -0.5q21 0 33.5 3.5t19 14t8.5 31t2 55.5v509z" />
    <glyph glyph-name="circumflex" unicode="&#x2c6;" horiz-adv-x="500" 
d="M374 609q-14 0 -20.5 2.5t-14.5 11.5l-79 94q-5 3 -10 3q-8 0 -12 -3l-81 -94q-8 -9 -13.5 -11.5t-19.5 -2.5h-48q-10 0 -10 10l119 174q7 10 15 10h97q8 0 15 -10l118 -174q1 -5 -2 -7.5t-8 -2.5h-46z" />
    <glyph glyph-name="caron" unicode="&#x2c7;" horiz-adv-x="500" 
d="M122 796q14 0 20.5 -2t14.5 -12l79 -94q4 -3 10 -3q7 0 12 3l81 94q8 10 13.5 12t18.5 2h48q5 0 8 -2.5t2 -7.5l-118 -174q-7 -10 -15 -10h-97q-8 0 -15 10l-119 174q0 10 10 10h47z" />
    <glyph glyph-name="uni02C9" unicode="&#x2c9;" horiz-adv-x="500" 
d="M114 750q-10 0 -10 10v72q0 10 10 10h273q10 0 10 -10v-72q0 -10 -10 -10h-273z" />
    <glyph glyph-name="breve" unicode="&#x2d8;" horiz-adv-x="500" 
d="M250 685q25 0 40 4t23.5 12.5t11.5 21.5t3 32q0 8 2 10t8 2h57q10 0 10 -10q0 -41 -8 -69.5t-26.5 -46.5t-48.5 -26.5t-73 -8.5t-72.5 8.5t-48 26.5t-26.5 46.5t-8 69.5q0 10 10 10h56q6 0 8.5 -2t2.5 -10q0 -19 3 -32t11.5 -21.5t24 -12.5t40.5 -4z" />
    <glyph glyph-name="dotaccent" unicode="&#x2d9;" horiz-adv-x="500" 
d="M200 626q-10 0 -10 10v93q0 10 10 10h100q10 0 10 -10v-93q0 -10 -10 -10h-100z" />
    <glyph glyph-name="ring" unicode="&#x2da;" horiz-adv-x="500" 
d="M313 719q0 39 -16.5 50.5t-46.5 11.5q-35 0 -50.5 -12t-15.5 -50q0 -42 17.5 -54.5t48.5 -12.5q33 0 48 12.5t15 54.5zM121 712q0 70 33 97t96 27q62 0 95 -26.5t33 -86.5q0 -39 -10 -63.5t-27.5 -38.5t-41 -19t-49.5 -5t-49.5 5t-41 18t-28 35t-10.5 57z" />
    <glyph glyph-name="ogonek" unicode="&#x2db;" horiz-adv-x="500" 
d="M245 -116q0 -22 10 -30t30 -8q10 0 20.5 1t20.5 3q8 2 12 2q6 0 6 -10v-42q0 -9 -8 -12q-16 -6 -37.5 -9t-45.5 -3q-25 0 -44.5 4t-33.5 14.5t-21.5 28.5t-7.5 45q0 20 6 39t19.5 38.5t36 41.5t55.5 49q14 10 25 10q3 0 8.5 -2t11.5 -5t10 -7t4 -8q0 -7 -6 -14
q-35 -39 -53 -66t-18 -60z" />
    <glyph glyph-name="tilde" unicode="&#x2dc;" horiz-adv-x="500" 
d="M266 723q19 -13 31 -19t22 -6q15 0 22 11t11 36q1 4 7 4h53q7 0 7 -9q0 -23 -6 -45.5t-18 -40t-30 -28.5t-42 -11q-23 0 -42 6t-46 25q-20 14 -30 18.5t-21 4.5q-14 0 -22 -10t-13 -34q0 -7 -7 -7h-54q-7 0 -7 9q0 25 7 48t20 40t31 27t41 10q25 0 42.5 -5.5t43.5 -23.5z
" />
    <glyph glyph-name="hungarumlaut" unicode="&#x2dd;" horiz-adv-x="500" 
d="M96 601q-5 0 -8 2.5t-2 7.5l80 179q7 10 15 10h94q5 0 8 -3t2 -7l-118 -173q-8 -11 -14.5 -13.5t-25.5 -2.5h-31zM285 601q-5 0 -8 3t-2 7l84 179q7 10 15 10h93q5 0 8 -3t2 -7l-120 -173q-8 -11 -15 -13.5t-26 -2.5h-31z" />
    <glyph glyph-name="glyph335" horiz-adv-x="500" 
d="M160 -238q-4 0 -7 2t-2 7l68 162q4 9 12 9h95q5 0 8 -2.5t1 -6.5l-100 -157q-7 -10 -12.5 -12t-22.5 -2h-40z" />
    <glyph glyph-name="uni0394" unicode="&#x394;" horiz-adv-x="646" 
d="M55 0q-13 0 -13 11v67q0 5 1 15t3 15q10 31 23 74.5t29 93t33 103t34 105.5t32 100t28 86q3 10 12 10h180q9 0 12 -10q12 -37 28 -87t33 -105.5t34.5 -112.5t32.5 -107.5t27 -91.5t19 -65q1 -5 2.5 -15.5t1.5 -17.5v-57q0 -11 -13 -11h-539zM467 111q4 0 4 5
q-1 9 -9.5 40.5t-20.5 75t-27 94t-28.5 97.5t-25.5 84.5t-18 56.5q0 2 -3 2.5t-13 0.5q-17 0 -18 -3q-6 -19 -18 -56.5t-26 -84.5t-28.5 -97.5t-27 -94t-21 -75t-9.5 -40.5q0 -5 5 -5h284z" />
    <glyph glyph-name="uni03A9" unicode="&#x3a9;" horiz-adv-x="664" 
d="M335 690q67 0 117.5 -15.5t84.5 -49t51.5 -87.5t17.5 -131v-10q-2 -69 -25.5 -131.5t-82.5 -116.5q-7 -7 -9 -12t-2 -15q0 -7 0.5 -10t5.5 -3h121q10 0 10 -10v-89q0 -10 -10 -10h-223q-8 0 -10 2.5t-2 10.5v118q0 17 2.5 25.5t13.5 19.5q24 24 39 49t23.5 52t11 56
t2.5 60q0 65 -9.5 103t-27 57t-42.5 24t-56 5q-40 0 -67.5 -7.5t-44 -28t-24 -57.5t-7.5 -96q0 -62 14 -116t62 -101q11 -11 14 -19.5t3 -25.5v-118q0 -8 -2 -10.5t-11 -2.5h-224q-10 0 -10 10v89q0 10 10 10h122q5 0 5.5 3t0.5 10q-1 10 -2.5 15t-8.5 12q-31 27 -51.5 57.5
t-33 63.5t-18 67.5t-5.5 69.5q0 77 18 131t53 87.5t86.5 49t119.5 15.5z" />
    <glyph glyph-name="uni03BC" unicode="&#x3bc;" horiz-adv-x="603" 
d="M397 49q-8 -10 -18 -19t-25 -15.5t-37 -10.5t-54 -4q-13 0 -26.5 1t-27.5 1q-7 0 -7 -9v-163q0 -10 -10 -10h-111q-10 0 -10 10v695q0 10 10 10h111q10 0 10 -10v-398q0 -11 2 -14t16 -5q7 -1 23 -2.5t39 -1.5q53 0 75.5 19.5t22.5 72.5v329q0 10 10 10h111q10 0 10 -10
v-386q0 -29 7.5 -39.5t29.5 -10.5h18q10 0 10 -12l-3 -65q0 -11 -20 -15q-14 -3 -24.5 -4.5t-22.5 -1.5q-42 0 -61 13.5t-29 44.5q-2 8 -3.5 10t-3.5 2q-3 0 -12 -12z" />
    <glyph glyph-name="pi" unicode="&#x3c0;" horiz-adv-x="687" 
d="M614 -2q-16 -5 -37.5 -6.5t-46.5 -1.5q-60 0 -83 30.5t-25 90.5l-7 311q0 6 -6 6h-131q-6 0 -6 -6l-43 -412q0 -10 -10 -10h-106q-10 0 -10 10l46 412q0 6 -5 6h-88q-10 0 -10 10v87q0 10 10 10h578q10 0 10 -10v-87q0 -10 -10 -10h-96q-5 0 -5 -6l7 -283
q1 -33 11.5 -41.5t40.5 -8.5h27q10 0 10 -9l-2 -66q0 -12 -13 -16z" />
    <glyph glyph-name="Wgrave" unicode="&#x1e80;" horiz-adv-x="882" 
d="M743 11q-4 -11 -15 -11h-182q-9 0 -12 11q-4 15 -9.5 46t-13 72t-16 88.5t-17 96t-16.5 94.5t-14 85q-1 8 -10 8q-10 0 -11 -8q-6 -39 -13 -85t-15 -94t-16 -95.5t-15 -88.5t-13 -72t-10 -47q-2 -11 -14 -11h-183q-10 0 -12 11q-7 39 -17.5 99t-22 129t-23 140t-21 131.5
t-16 104t-7.5 56.5q0 9 10 9h121q8 0 9 -10q3 -29 8 -73t11.5 -94.5t14 -104.5t14.5 -102.5t13.5 -88.5t10.5 -63q3 -12 14 -12q8 0 10.5 2.5t4.5 9.5q4 22 11 58.5t14.5 81.5t16 95t16 98.5t14.5 93.5t12 79q0 10 10 10h154q10 0 10 -10q5 -34 12 -78.5t15 -93t16.5 -98
t16.5 -94.5t15 -82t12 -60q2 -6 4 -9t10 -3t11 2.5t4 10.5q4 23 10 63t12.5 88.5t14 102t14 104t11.5 94.5t8 73q1 10 13 10h117q9 0 9 -10q-3 -19 -10 -64.5t-16.5 -106t-21 -130t-23 -136.5t-22 -125.5t-17.5 -96.5zM472 737q-18 0 -27 1.5t-18 11.5l-147 144q-4 2 -3 8
t11 6h114q5 0 10 -3t8 -7l108 -151q3 -3 0.5 -6.5t-7.5 -3.5h-49z" />
    <glyph glyph-name="wgrave" unicode="&#x1e81;" horiz-adv-x="868" 
d="M721 8q-3 -8 -11 -8h-176q-6 0 -8 8q-8 35 -18 83t-21 101.5t-22 108.5t-20 104q-1 6 -10 6q-10 0 -11 -6q-9 -49 -21 -104.5t-24 -109t-23.5 -101.5t-19.5 -82q-2 -8 -11 -8h-180q-5 0 -7 8q-7 29 -18 74t-23 96.5t-24.5 106.5t-23 102.5t-18.5 84.5t-11 54q0 9 7 9h126
q7 0 7 -9q7 -48 17 -104t20.5 -112t20 -106.5t17.5 -87.5q1 -6 12 -6t12 6q8 37 18.5 87.5t21.5 106.5t21.5 112t18.5 104q3 9 10 9h171q6 0 8 -9q8 -48 18.5 -104t21.5 -112t21.5 -106.5t18.5 -87.5q1 -6 12 -6q10 0 12 6q8 37 19 87.5t22.5 106.5t22 112t18.5 104
q3 9 10 9h118q6 0 6 -10q-3 -16 -11.5 -52.5t-20 -84t-25 -102t-26.5 -106.5t-24.5 -97t-19.5 -75zM452 604q-19 0 -26 2.5t-14 13.5l-117 177q-1 5 2 7.5t8 2.5h97q9 0 15 -10l82 -183q1 -5 -2 -7.5t-8 -2.5h-37z" />
    <glyph glyph-name="Wacute" unicode="&#x1e82;" horiz-adv-x="882" 
d="M743 11q-4 -11 -15 -11h-182q-9 0 -12 11q-4 15 -9.5 46t-13 72t-16 88.5t-17 96t-16.5 94.5t-14 85q-1 8 -10 8q-10 0 -11 -8q-6 -39 -13 -85t-15 -94t-16 -95.5t-15 -88.5t-13 -72t-10 -47q-2 -11 -14 -11h-183q-10 0 -12 11q-7 39 -17.5 99t-22 129t-23 140t-21 131.5
t-16 104t-7.5 56.5q0 9 10 9h121q8 0 9 -10q3 -29 8 -73t11.5 -94.5t14 -104.5t14.5 -102.5t13.5 -88.5t10.5 -63q3 -12 14 -12q8 0 10.5 2.5t4.5 9.5q4 22 11 58.5t14.5 81.5t16 95t16 98.5t14.5 93.5t12 79q0 10 10 10h154q10 0 10 -10q5 -34 12 -78.5t15 -93t16.5 -98
t16.5 -94.5t15 -82t12 -60q2 -6 4 -9t10 -3t11 2.5t4 10.5q4 23 10 63t12.5 88.5t14 102t14 104t11.5 94.5t8 73q1 10 13 10h117q9 0 9 -10q-3 -19 -10 -64.5t-16.5 -106t-21 -130t-23 -136.5t-22 -125.5t-17.5 -96.5zM377 737q-5 0 -7.5 3.5t0.5 6.5l108 151q3 4 8 7t10 3
h114q10 0 11 -6t-3 -8l-147 -144q-9 -10 -18 -11.5t-27 -1.5h-49z" />
    <glyph glyph-name="wacute" unicode="&#x1e83;" horiz-adv-x="868" 
d="M721 8q-3 -8 -11 -8h-176q-6 0 -8 8q-8 35 -18 83t-21 101.5t-22 108.5t-20 104q-1 6 -10 6q-10 0 -11 -6q-9 -49 -21 -104.5t-24 -109t-23.5 -101.5t-19.5 -82q-2 -8 -11 -8h-180q-5 0 -7 8q-7 29 -18 74t-23 96.5t-24.5 106.5t-23 102.5t-18.5 84.5t-11 54q0 9 7 9h126
q7 0 7 -9q7 -48 17 -104t20.5 -112t20 -106.5t17.5 -87.5q1 -6 12 -6t12 6q8 37 18.5 87.5t21.5 106.5t21.5 112t18.5 104q3 9 10 9h171q6 0 8 -9q8 -48 18.5 -104t21.5 -112t21.5 -106.5t18.5 -87.5q1 -6 12 -6q10 0 12 6q8 37 19 87.5t22.5 106.5t22 112t18.5 104
q3 9 10 9h118q6 0 6 -10q-3 -16 -11.5 -52.5t-20 -84t-25 -102t-26.5 -106.5t-24.5 -97t-19.5 -75zM379 604q-10 0 -10 10l81 183q6 10 15 10h97q5 0 8 -2.5t2 -7.5l-118 -177q-7 -11 -14.5 -13.5t-25.5 -2.5h-35z" />
    <glyph glyph-name="Wdieresis" unicode="&#x1e84;" horiz-adv-x="882" 
d="M743 11q-4 -11 -15 -11h-182q-9 0 -12 11q-4 15 -9.5 46t-13 72t-16 88.5t-17 96t-16.5 94.5t-14 85q-1 8 -10 8q-10 0 -11 -8q-6 -39 -13 -85t-15 -94t-16 -95.5t-15 -88.5t-13 -72t-10 -47q-2 -11 -14 -11h-183q-10 0 -12 11q-7 39 -17.5 99t-22 129t-23 140t-21 131.5
t-16 104t-7.5 56.5q0 9 10 9h121q8 0 9 -10q3 -29 8 -73t11.5 -94.5t14 -104.5t14.5 -102.5t13.5 -88.5t10.5 -63q3 -12 14 -12q8 0 10.5 2.5t4.5 9.5q4 22 11 58.5t14.5 81.5t16 95t16 98.5t14.5 93.5t12 79q0 10 10 10h154q10 0 10 -10q5 -34 12 -78.5t15 -93t16.5 -98
t16.5 -94.5t15 -82t12 -60q2 -6 4 -9t10 -3t11 2.5t4 10.5q4 23 10 63t12.5 88.5t14 102t14 104t11.5 94.5t8 73q1 10 13 10h117q9 0 9 -10q-3 -19 -10 -64.5t-16.5 -106t-21 -130t-23 -136.5t-22 -125.5t-17.5 -96.5zM294 751q-10 0 -10 10v87q0 10 10 10h92q10 0 10 -10
v-87q0 -10 -10 -10h-92zM498 751q-10 0 -10 10v87q0 10 10 10h93q10 0 10 -10v-87q0 -10 -10 -10h-93z" />
    <glyph glyph-name="wdieresis" unicode="&#x1e85;" horiz-adv-x="868" 
d="M721 8q-3 -8 -11 -8h-176q-6 0 -8 8q-8 35 -18 83t-21 101.5t-22 108.5t-20 104q-1 6 -10 6q-10 0 -11 -6q-9 -49 -21 -104.5t-24 -109t-23.5 -101.5t-19.5 -82q-2 -8 -11 -8h-180q-5 0 -7 8q-7 29 -18 74t-23 96.5t-24.5 106.5t-23 102.5t-18.5 84.5t-11 54q0 9 7 9h126
q7 0 7 -9q7 -48 17 -104t20.5 -112t20 -106.5t17.5 -87.5q1 -6 12 -6t12 6q8 37 18.5 87.5t21.5 106.5t21.5 112t18.5 104q3 9 10 9h171q6 0 8 -9q8 -48 18.5 -104t21.5 -112t21.5 -106.5t18.5 -87.5q1 -6 12 -6q10 0 12 6q8 37 19 87.5t22.5 106.5t22 112t18.5 104
q3 9 10 9h118q6 0 6 -10q-3 -16 -11.5 -52.5t-20 -84t-25 -102t-26.5 -106.5t-24.5 -97t-19.5 -75zM282 630q-10 0 -10 10v87q0 10 10 10h92q10 0 10 -10v-87q0 -10 -10 -10h-92zM486 630q-10 0 -10 10v87q0 10 10 10h93q10 0 10 -10v-87q0 -10 -10 -10h-93z" />
    <glyph glyph-name="Ygrave" unicode="&#x1ef2;" horiz-adv-x="552" 
d="M408 669q7 11 17 11h117q9 0 6 -10q-15 -32 -38 -79.5t-48 -97.5t-49 -96t-40 -75q-20 -36 -27.5 -51t-7.5 -26v-235q0 -10 -10 -10h-113q-10 0 -10 10v236q0 6 -1.5 11.5t-4.5 13t-9 18.5t-15 28q-11 20 -26 50t-32 64.5t-34.5 71t-32.5 69l-27 58.5t-18 40q-3 10 7 10
h124q10 0 14 -11q11 -27 25.5 -62.5t29.5 -71.5t30.5 -70.5t27.5 -59.5q5 -11 7.5 -14t7.5 -3t8 3t8 14q12 24 27.5 57t31 69.5t30 72.5t25.5 65zM286 737q-18 0 -27 1.5t-18 11.5l-147 144q-4 2 -3 8t11 6h114q5 0 10 -3t8 -7l108 -151q3 -3 0.5 -6.5t-7.5 -3.5h-49z" />
    <glyph glyph-name="ygrave" unicode="&#x1ef3;" horiz-adv-x="503" 
d="M224 12q0 5 -13 5h-29q-16 0 -25 6t-12 15q-11 32 -24 76t-26.5 92.5t-26.5 98.5t-24.5 93.5t-19 77.5t-10.5 50q0 9 9 9h121q7 0 9 -9q9 -47 20 -102t23 -110t23.5 -106t21.5 -90q1 -6 13 -6q13 0 15 7l6 20q10 40 21 89.5t22 101.5t21 102.5t18 93.5q1 9 14 9h109
q8 0 8 -10q-3 -17 -12.5 -55t-22 -87t-27.5 -105t-29.5 -108t-27.5 -96t-22 -70q-19 -55 -40 -90.5t-48 -56.5t-62 -29t-82 -8q-17 0 -30 1t-20 3q-10 2 -10 12l-3 64q0 8 2.5 10t9.5 2q37 0 61 2.5t40.5 11t28 23.5t22.5 39q5 11 6.5 15.5t1.5 8.5zM261 604q-19 0 -26 2.5
t-14 13.5l-117 177q-1 5 2 7.5t8 2.5h97q9 0 15 -10l82 -183q1 -5 -2 -7.5t-8 -2.5h-37z" />
    <glyph glyph-name="endash" unicode="&#x2013;" horiz-adv-x="480" 
d="M53 256q-10 0 -10 10v69q0 10 10 10h374q10 0 10 -10v-69q0 -10 -10 -10h-374z" />
    <glyph glyph-name="emdash" unicode="&#x2014;" horiz-adv-x="680" 
d="M53 256q-10 0 -10 10v69q0 10 10 10h574q10 0 10 -10v-69q0 -10 -10 -10h-574z" />
    <glyph glyph-name="quoteleft" unicode="&#x2018;" horiz-adv-x="254" 
d="M187 741q10 0 10 -10l-28 -250q0 -10 -10 -10h-95q-5 0 -8.5 2.5t-1.5 7.5l54 226q4 18 12 26t27 8h40z" />
    <glyph glyph-name="quoteright" unicode="&#x2019;" horiz-adv-x="254" 
d="M67 471q-10 0 -10 10l28 250q0 10 10 10h95q5 0 8.5 -2.5t1.5 -7.5l-54 -227q-4 -17 -12 -25t-27 -8h-40z" />
    <glyph glyph-name="quotesinglbase" unicode="&#x201a;" horiz-adv-x="254" 
d="M67 -89q-10 0 -10 10l28 250q0 10 10 10h95q5 0 8.5 -2.5t1.5 -7.5l-54 -227q-4 -17 -12 -25t-27 -8h-40z" />
    <glyph glyph-name="quotedblleft" unicode="&#x201c;" horiz-adv-x="432" 
d="M365 741q10 0 10 -10l-28 -250q0 -10 -10 -10h-95q-5 0 -8.5 2.5t-1.5 7.5l54 226q4 18 12 26t27 8h40zM187 741q10 0 10 -10l-28 -250q0 -10 -10 -10h-95q-5 0 -8.5 2.5t-1.5 7.5l54 226q4 18 12 26t27 8h40z" />
    <glyph glyph-name="quotedblright" unicode="&#x201d;" horiz-adv-x="432" 
d="M67 471q-10 0 -10 10l28 250q0 10 10 10h95q5 0 8.5 -2.5t1.5 -7.5l-54 -227q-4 -17 -12 -25t-27 -8h-40zM245 471q-10 0 -10 10l28 250q0 10 10 10h95q5 0 8.5 -2.5t1.5 -7.5l-54 -227q-4 -17 -12 -25t-27 -8h-40z" />
    <glyph glyph-name="quotedblbase" unicode="&#x201e;" horiz-adv-x="432" 
d="M67 -89q-10 0 -10 10l28 250q0 10 10 10h95q5 0 8.5 -2.5t1.5 -7.5l-54 -227q-4 -17 -12 -25t-27 -8h-40zM245 -89q-10 0 -10 10l28 250q0 10 10 10h95q5 0 8.5 -2.5t1.5 -7.5l-54 -227q-4 -17 -12 -25t-27 -8h-40z" />
    <glyph glyph-name="dagger" unicode="&#x2020;" horiz-adv-x="560" 
d="M227 691q0 10 10 10h90q10 0 10 -10v-238q0 -6 6 -6h165q10 0 10 -10v-76q0 -10 -10 -10h-165q-6 0 -6 -6v-464q0 -10 -10 -10h-90q-10 0 -10 10v464q0 6 -6 6h-168q-10 0 -10 10v76q0 10 10 10h168q6 0 6 6v238z" />
    <glyph glyph-name="daggerdbl" unicode="&#x2021;" horiz-adv-x="560" 
d="M226 424q0 6 -6 6h-168q-10 0 -10 10v77q0 10 10 10h168q6 0 6 6v158q0 10 10 10h90q10 0 10 -10v-158q0 -6 6 -6h165q10 0 10 -10v-77q0 -10 -10 -10h-165q-6 0 -6 -6v-276q0 -6 6 -6h165q10 0 10 -10v-77q0 -10 -10 -10h-165q-6 0 -6 -5v-159q0 -10 -10 -10h-90
q-10 0 -10 10v158q0 6 -6 6h-168q-10 0 -10 10v77q0 10 10 10h168q6 0 6 6v276z" />
    <glyph glyph-name="bullet" unicode="&#x2022;" horiz-adv-x="498" 
d="M252 519q34 0 65 -14t54 -37.5t36.5 -55t13.5 -66.5q0 -36 -13.5 -67.5t-37 -54.5t-54.5 -36.5t-66 -13.5q-36 0 -68 13.5t-55.5 36.5t-37 55t-13.5 68t13.5 67.5t37.5 54.5t56 36.5t69 13.5z" />
    <glyph glyph-name="ellipsis" unicode="&#x2026;" horiz-adv-x="844" 
d="M79 0q-10 0 -10 10v125q0 10 10 10h124q10 0 10 -10v-125q0 -10 -10 -10h-124zM360 0q-10 0 -10 10v125q0 10 10 10h124q10 0 10 -10v-125q0 -10 -10 -10h-124zM641 0q-10 0 -10 10v125q0 10 10 10h125q10 0 10 -10v-125q0 -10 -10 -10h-125z" />
    <glyph glyph-name="perthousand" unicode="&#x2030;" horiz-adv-x="1065" 
d="M538 670q2 4 5.5 7t8.5 3h57q11 0 9 -10l-411 -660q-2 -4 -5.5 -7t-8.5 -3h-57q-11 0 -9 10zM137 516q0 -29 4.5 -57.5t13.5 -38.5q10 -11 32 -11t32 11q9 10 13.5 38.5t4.5 57.5q0 30 -4.5 59t-13.5 39q-10 11 -32 11t-32 -11q-9 -10 -13.5 -39t-4.5 -59zM324 516
q0 -20 -2.5 -42.5t-8.5 -43.5t-15.5 -38.5t-22.5 -26.5q-17 -11 -37 -16.5t-51 -5.5t-51 5.5t-37 16.5q-14 9 -23 26.5t-15 38.5t-8.5 43.5t-2.5 42.5t2.5 42.5t8.5 43.5t15 38.5t23 27.5q17 12 37 17t51 5t51 -5t37 -17q13 -10 22.5 -27.5t15.5 -38.5t8.5 -43.5t2.5 -42.5z
M506 164q0 -15 1 -30t3.5 -28.5t5.5 -23.5t8 -15q10 -10 32 -10q21 0 31 10q5 5 8.5 15t5.5 23.5t3 28.5t1 30t-1 30t-3 28.5t-5.5 24t-8.5 15.5q-10 10 -31 10q-22 0 -32 -10q-5 -5 -8 -15.5t-5.5 -24t-3.5 -28.5t-1 -30zM693 163q0 -20 -2.5 -42.5t-8.5 -43.5t-15.5 -38.5
t-22.5 -26.5q-18 -11 -38 -16.5t-50 -5.5q-31 0 -51 5.5t-38 16.5q-14 9 -23 26.5t-15 38.5t-8.5 43.5t-2.5 42.5t2.5 43t8.5 44t15 38.5t23 26.5q18 12 38 17t51 5q30 0 50 -5t38 -17q13 -9 22.5 -26.5t15.5 -38.5t8.5 -44t2.5 -43zM828 164q0 -15 1 -30t3.5 -28.5
t5.5 -23.5t8 -15q10 -10 32 -10q21 0 31 10q5 5 8.5 15t5.5 23.5t3 28.5t1 30t-1 30t-3 28.5t-5.5 24t-8.5 15.5q-10 10 -31 10q-22 0 -32 -10q-5 -5 -8 -15.5t-5.5 -24t-3.5 -28.5t-1 -30zM1015 163q0 -20 -2.5 -42.5t-8.5 -43.5t-15.5 -38.5t-22.5 -26.5
q-18 -11 -38 -16.5t-50 -5.5q-31 0 -51 5.5t-38 16.5q-14 9 -23 26.5t-15 38.5t-8.5 43.5t-2.5 42.5t2.5 43t8.5 44t15 38.5t23 26.5q18 12 38 17t51 5q30 0 50 -5t38 -17q13 -9 22.5 -26.5t15.5 -38.5t8.5 -44t2.5 -43z" />
    <glyph glyph-name="guilsinglleft" unicode="&#x2039;" horiz-adv-x="330" 
d="M62 319q0 10 9 19l182 168q4 4 8 4q7 0 7 -10v-64q0 -15 -6.5 -24.5t-17.5 -21.5l-98 -108q-3 -5 -3 -10q0 -7 3 -11l111 -122q7 -8 9 -12t2 -13v-71q0 -10 -7 -10q-4 0 -8 4l-182 168q-9 9 -9 18v96z" />
    <glyph glyph-name="guilsinglright" unicode="&#x203a;" horiz-adv-x="330" 
d="M268 223q0 -5 -3 -9.5t-7 -8.5l-182 -168q-4 -4 -8 -4q-6 0 -6 10v63q0 8 1 14.5t5 13.5l115 127q3 4 3 10q0 5 -3 10l-111 122q-7 7 -8.5 12t-1.5 14v71q0 10 6 10q4 0 8 -4l182 -168q4 -4 7 -8.5t3 -10.5v-96z" />
    <glyph glyph-name="fraction" unicode="&#x2044;" horiz-adv-x="180" 
d="M183 691q4 10 10 10h72q8 0 6 -10l-288 -731q-4 -10 -10 -10h-70q-8 0 -6 10z" />
    <glyph glyph-name="Euro" unicode="&#x20ac;" 
d="M510 9q-26 -8 -61.5 -13.5t-76.5 -5.5q-119 0 -181 63.5t-73 177.5q-1 2 -2.5 4t-4.5 2h-56q-10 0 -10 10v55q0 10 10 10h56q4 0 5.5 6.5t1.5 24.5q0 20 -1 25.5t-6 5.5h-56q-10 0 -10 10v55q0 10 10 10h60q6 0 7 5q8 54 26.5 98t49 74.5t74.5 47t103 16.5q18 0 37 -1.5
t36.5 -3.5t32 -5t23.5 -6q5 -2 5.5 -4.5t0.5 -5.5l-8 -88q-1 -7 -8 -5q-20 6 -47.5 10.5t-56.5 4.5q-69 0 -102.5 -33.5t-39.5 -100.5q0 -3 6 -3h197q10 0 10 -10v-55q0 -10 -10 -10h-205q-4 0 -6 -6t-2 -28q0 -19 2 -23.5t6 -4.5h178q10 0 10 -10v-55q0 -10 -10 -10h-168
q-9 0 -9 -5q2 -31 11.5 -56.5t27 -44t45 -28.5t65.5 -10q28 0 51 2.5t50 11.5q2 1 4.5 0t3.5 -3l10 -86q0 -7 -5 -9z" />
    <glyph glyph-name="uni2113" unicode="&#x2113;" horiz-adv-x="545" 
d="M265 312q0 -10 6 -10q5 0 11 3.5t18 14.5q29 27 41.5 66.5t12.5 97.5q0 72 -9.5 99t-35.5 27q-27 0 -35.5 -20.5t-8.5 -66.5v-211zM145 137q0 8 -2 9t-7 -2l-28 -17q-6 -4 -10 -2.5t-5 6.5l-22 70q-2 9 6 12l57 28q8 2 9.5 9t1.5 20v246q0 40 6 72.5t23.5 55.5t48 35
t79.5 12q48 0 77 -15t44 -41.5t20 -63.5t5 -81q0 -53 -9.5 -94t-30.5 -74.5t-53.5 -62.5t-78.5 -56q-8 -5 -9.5 -10.5t-1.5 -18.5q0 -27 3 -44t12 -26.5t25.5 -13.5t44.5 -4h41q10 0 10 -10l-4 -61q0 -5 -3.5 -8t-7.5 -5q-18 -7 -42.5 -9.5t-53.5 -2.5q-69 0 -107 34t-38 97
v16z" />
    <glyph glyph-name="trademark" unicode="&#x2122;" horiz-adv-x="737" 
d="M108 603q0 9 -7 9h-56q-6 0 -6 5v58q0 5 6 5h209q5 0 5 -5v-58q0 -5 -5 -5h-57q-6 0 -6 -9v-256q0 -5 -6 -5h-72q-5 0 -5 6v255zM533 675q2 5 7 5h101q4 0 6 -6v-327q0 -5 -6 -5h-71q-6 0 -6 6l2 221q0 7 -3 7q-2 0 -5 -7l-43 -145q-2 -6 -8 -6h-58q-5 0 -7.5 1t-4.5 9
l-38 141q-1 7 -4 7t-3 -8l3 -221q0 -5 -6 -5h-70q-5 0 -5 6v327q0 5 5 5h105q4 0 6 -6l45 -153q3 -8 5 -8t5 8z" />
    <glyph glyph-name="Omega" unicode="&#x2126;" horiz-adv-x="673" 
d="M335 690q67 0 117.5 -15.5t84.5 -49t51.5 -87.5t17.5 -131v-10q-2 -69 -25.5 -131.5t-82.5 -116.5q-7 -7 -9 -12t-2 -15q0 -7 0.5 -10t5.5 -3h121q10 0 10 -10v-89q0 -10 -10 -10h-223q-8 0 -10 2.5t-2 10.5v118q0 17 2.5 25.5t13.5 19.5q24 24 39 49t23.5 52t11 56
t2.5 60q0 65 -9.5 103t-27 57t-42.5 24t-56 5q-40 0 -67.5 -7.5t-44 -28t-24 -57.5t-7.5 -96q0 -62 14 -116t62 -101q11 -11 14 -19.5t3 -25.5v-118q0 -8 -2 -10.5t-11 -2.5h-224q-10 0 -10 10v89q0 10 10 10h122q5 0 5.5 3t0.5 10q-1 10 -2.5 15t-8.5 12q-31 27 -51.5 57.5
t-33 63.5t-18 67.5t-5.5 69.5q0 77 18 131t53 87.5t86.5 49t119.5 15.5z" />
    <glyph glyph-name="estimated" unicode="&#x212e;" horiz-adv-x="853" 
d="M743 136q-26 -29 -57 -56t-71 -47.5t-89.5 -32.5t-112.5 -12q-74 0 -142 24t-119.5 70t-82.5 112t-31 150q0 80 32.5 147.5t87 116t127 75.5t152.5 27q96 0 167 -32t118.5 -83t71 -115.5t23.5 -129.5v-4h-613l-8 -10v-230q48 -44 104.5 -63t118.5 -19q88 0 150.5 32
t105.5 80h68zM660 391v205q-53 49 -110 63.5t-113 14.5q-28 0 -59 -4t-62 -13.5t-61.5 -26.5t-58.5 -43v-196l8 -9h448z" />
    <glyph glyph-name="partialdiff" unicode="&#x2202;" horiz-adv-x="583" 
d="M321 536q-11 15 -32.5 37.5t-48 48.5t-54.5 52t-52 47q-5 5 -0.5 9.5t9.5 4.5h111q9 0 15.5 -1t11.5 -6q69 -54 115.5 -106t74.5 -107t40 -116t12 -134q0 -71 -11.5 -123t-39 -86.5t-73.5 -51t-114 -16.5q-70 0 -115 16.5t-71.5 49.5t-37 83t-10.5 117q0 55 9 102
t31.5 81.5t60 54.5t94.5 20q29 0 48 -5t33 -5q9 0 9 7q0 3 -2 9zM182 247q0 -46 3.5 -78t15 -51.5t31.5 -28t53 -8.5q30 0 50.5 8t32.5 27.5t17 52.5t5 82q0 46 -4 79t-15 54t-32 31t-54 10q-30 0 -50 -9t-31.5 -30t-16.5 -55t-5 -84z" />
    <glyph glyph-name="Delta" unicode="&#x2206;" horiz-adv-x="586" 
d="M55 0q-13 0 -13 11v67q0 5 1 15t3 15q10 31 23 74.5t29 93t33 103t34 105.5t32 100t28 86q3 10 12 10h180q9 0 12 -10q12 -37 28 -87t33 -105.5t34.5 -112.5t32.5 -107.5t27 -91.5t19 -65q1 -5 2.5 -15.5t1.5 -17.5v-57q0 -11 -13 -11h-539zM467 111q4 0 4 5
q-1 9 -9.5 40.5t-20.5 75t-27 94t-28.5 97.5t-25.5 84.5t-18 56.5q0 2 -3 2.5t-13 0.5q-17 0 -18 -3q-6 -19 -18 -56.5t-26 -84.5t-28.5 -97.5t-27 -94t-21 -75t-9.5 -40.5q0 -5 5 -5h284z" />
    <glyph glyph-name="product" unicode="&#x220f;" horiz-adv-x="779" 
d="M653 680q10 0 10 -10v-847q0 -10 -10 -10h-108q-10 0 -10 10v736q0 6 -6 6h-277q-6 0 -6 -6v-736q0 -10 -10 -10h-110q-10 0 -10 10v847q0 10 10 10h527z" />
    <glyph glyph-name="summation" unicode="&#x2211;" horiz-adv-x="554" 
d="M391 251q0 -5 -2.5 -11.5t-5.5 -10.5l-186 -275q-8 -13 -8 -22q0 -8 8 -8h301q11 0 11 -10v-92q0 -10 -10 -10h-444q-10 0 -10 10v100q0 7 3 14t7 12l192 289q2 5 2.5 8.5t0.5 7.5t-0.5 7.5t-2.5 8.5l-185 268q-10 11 -10 26v107q0 10 10 10h430q10 0 10 -10v-91
q0 -10 -11 -10h-287q-9 0 -9 -8q0 -10 9 -22l179 -266q3 -4 5.5 -10.5t2.5 -11.5z" />
    <glyph glyph-name="minus" unicode="&#x2212;" 
d="M75 226q-11 0 -11 11v75q0 11 11 11h418q11 0 11 -11v-75q0 -11 -11 -11h-418z" />
    <glyph glyph-name="uni2215" unicode="&#x2215;" horiz-adv-x="180" 
d="M183 691q4 10 10 10h72q8 0 6 -10l-288 -731q-4 -10 -10 -10h-70q-8 0 -6 10z" />
    <glyph glyph-name="uni2219" unicode="&#x2219;" horiz-adv-x="281" 
d="M79 229q-10 0 -10 10v125q0 10 10 10h124q10 0 10 -10v-125q0 -10 -10 -10h-124z" />
    <glyph glyph-name="radical" unicode="&#x221a;" horiz-adv-x="540" 
d="M257 27q1 -8 15 -8q8 0 11 1.5t5 6.5l137 642q2 7 7 9t10 2h92q7 0 4 -10l-176 -750q0 -10 -10 -10h-168q-10 0 -10 10l-71 331q0 6 -6 6h-59q-10 0 -10 10v70q0 10 10 10h148q5 0 9.5 -5t7.5 -21z" />
    <glyph glyph-name="infinity" unicode="&#x221e;" horiz-adv-x="888" 
d="M445 116q-4 0 -6.5 -2t-3.5 -4q-25 -52 -73.5 -82t-117.5 -30q-60 0 -100 16t-65 46t-35.5 72t-10.5 95q0 52 10.5 94.5t35.5 72.5t65 46t100 16q69 0 117.5 -30t73.5 -82q1 -2 3.5 -4t6.5 -2t5.5 2t2.5 4q25 52 73.5 82t117.5 30q60 0 100 -16t65 -46t35.5 -72.5
t10.5 -94.5q0 -53 -10.5 -95t-35.5 -72t-65 -46t-100 -16q-69 0 -117.5 30t-73.5 82q-1 2 -2.5 4t-5.5 2zM630 356q-55 0 -89 -36.5t-34 -93.5t34.5 -92.5t88.5 -35.5q66 0 88.5 32t22.5 97t-22.5 97t-88.5 32zM256 98q55 0 89 36.5t34 93.5t-34.5 92.5t-88.5 35.5
q-66 0 -88.5 -32t-22.5 -97t22.5 -97t88.5 -32z" />
    <glyph glyph-name="integral" unicode="&#x222b;" horiz-adv-x="324" 
d="M101 528q0 48 5.5 89.5t20.5 73t42 49.5t70 18q20 0 34.5 -2.5t31.5 -7.5l-6 -79q-11 5 -21.5 7t-20.5 2q-35 0 -49 -27.5t-14 -65.5v-591q0 -50 -6.5 -89.5t-22 -67t-42.5 -42t-69 -14.5q-18 0 -30.5 1.5t-28.5 6.5l5 79q12 -5 21 -6.5t18 -1.5q35 0 48.5 26t13.5 66
v576z" />
    <glyph glyph-name="approxequal" unicode="&#x2248;" 
d="M303 419q27 -17 44.5 -25.5t34.5 -8.5t30 12t23 47q4 12 11 12l66 -16q7 -2 7 -10q-1 -20 -10.5 -45t-26.5 -46.5t-43 -36.5t-60 -15q-29 0 -56 9.5t-64 33.5q-29 20 -44.5 27.5t-31.5 7.5q-17 0 -31.5 -11.5t-23.5 -46.5q-3 -14 -10 -14l-63 17q-6 1 -6 8q0 17 8 42
t24.5 48t41.5 39.5t59 16.5q16 0 29 -2.5t27 -7.5t29.5 -13.5t35.5 -21.5zM303 225q27 -17 44.5 -25.5t34.5 -8.5t30 12t23 47q4 12 11 12l66 -16q3 -1 5 -2.5t2 -7.5q-1 -20 -10.5 -45t-26.5 -46.5t-43 -36.5t-60 -15q-29 0 -56 10t-64 34q-29 19 -44.5 26.5t-31.5 7.5
q-17 0 -31.5 -11.5t-23.5 -46.5q-3 -13 -10 -13l-63 17q-6 1 -6 8q0 17 8 42t24.5 48t41.5 39t59 16q16 0 29 -2.5t27 -7.5t29.5 -13.5t35.5 -21.5z" />
    <glyph glyph-name="notequal" unicode="&#x2260;" 
d="M75 132q-11 0 -11 11v76q0 11 11 11h135q9 0 13 10l23 54q5 12 5 20q0 5 -12 5h-164q-11 0 -11 11v76q0 11 11 11h204q10 0 13 3t4 5l44 102q3 10 14 10h82q11 0 11 -6q0 -2 -1.5 -5.5t-2.5 -6.5l-36 -84q-3 -11 -3 -14q0 -4 10 -4h79q11 0 11 -11v-76q0 -11 -11 -11
h-128q-6 0 -13 -16l-23 -55q-3 -8 -3 -13t8 -5h159q11 0 11 -11v-76q0 -11 -11 -11h-194q-9 0 -12.5 -3.5t-4.5 -5.5l-43 -102q-3 -10 -14 -10h-82q-11 0 -11 5q0 3 1 6.5t2 5.5l37 85q4 10 4 13q0 6 -5 6h-96z" />
    <glyph glyph-name="lessequal" unicode="&#x2264;" 
d="M496 551q0 -20 -15 -24l-300 -112q-3 -5 -3 -11q0 -5 0.5 -7t2.5 -5l300 -113q6 -2 10.5 -8t4.5 -16v-78q0 -11 -11 -11l-403 161q-11 7 -11 16v120q0 8 11 17l403 160q11 0 11 -11v-78zM75 14q-11 0 -11 11v76q0 12 11 12h418q11 0 11 -12v-76q0 -11 -11 -11h-418z" />
    <glyph glyph-name="greaterequal" unicode="&#x2265;" 
d="M72 629q0 11 11 11l402 -160q11 -8 11 -17v-120q0 -10 -11 -16l-402 -161q-11 0 -11 11v78q0 10 4.5 16t10.5 8l299 113q2 3 2.5 5t0.5 7q0 6 -3 11l-299 112q-15 4 -15 24v78zM75 14q-11 0 -11 11v76q0 12 11 12h418q11 0 11 -12v-76q0 -11 -11 -11h-418z" />
    <glyph glyph-name="lozenge" unicode="&#x25ca;" horiz-adv-x="496" 
d="M300 0h-105l-158 348l158 349h105l156 -349zM127 348q104 -225 119 -275h2q26 67 57.5 137t60.5 137q-54 117 -82 183t-36 92h-2q-12 -34 -24.5 -65t-27 -63t-31 -67.5t-36.5 -78.5z" />
    <glyph glyph-name="uniF8FF" unicode="&#xf8ff;" horiz-adv-x="485" 
d="M210 111v63h53v-63h-53zM211 222v16q0 25 2.5 43t9 32.5t17.5 27.5t28 28q30 30 38 46.5t8 33.5q0 34 -21.5 57t-50.5 23t-50.5 -20.5t-26.5 -69.5l-48 8q7 69 42 99.5t86 30.5q52 0 85 -33.5t33 -90.5q0 -31 -12 -55.5t-48 -57.5q-17 -15 -26 -25.5t-13.5 -21t-5.5 -23
t-1 -31.5v-17h-46zM438 47v585h-391v-585h391zM485 680v-680h-485v680h485z" />
    <glyph glyph-name="uniF001" unicode="&#xf001;" horiz-adv-x="603" 
d="M403 0q-10 0 -10 10v418q0 6 -9 6h-146q-6 0 -6 -6v-418q0 -10 -10 -10h-111q-10 0 -10 10v418q0 6 -6 6h-70q-10 0 -10 10v81q0 10 10 10h70q6 0 6 6v43q0 36 11.5 64t40.5 47.5t77.5 29.5t123.5 10q15 0 34.5 -0.5t39 -2t38 -3t31.5 -3.5q12 -2 8 -13l-6 -69
q-4 -8 -15 -6q-20 3 -56.5 5t-69.5 2q-30 0 -53.5 -2t-39.5 -9t-24.5 -20.5t-8.5 -36.5v-36q0 -6 6 -6h276q10 0 10 -10v-515q0 -10 -10 -10h-111z" />
    <glyph glyph-name="uniF002" unicode="&#xf002;" horiz-adv-x="614" 
d="M388 626q0 4 -1.5 7.5t-6.5 4.5q-13 2 -31 3.5t-33 1.5q-46 0 -65 -17.5t-19 -46.5v-38q0 -6 6 -6h83q10 0 10 -10v-81q0 -10 -10 -10h-83q-6 0 -6 -6v-418q0 -10 -10 -10h-112q-10 0 -10 10v418q0 6 -6 6h-69q-10 0 -10 10v81q0 10 10 10h69q6 0 6 6v45q0 81 62 115
t170 34q21 0 45.5 -1.5t49 -3.5t46.5 -4.5t39 -5.5q4 -1 5.5 -4.5t1.5 -8.5v-577q0 -24 10 -33t32 -9h32q10 0 10 -10l-3 -66q0 -10 -10 -12q-17 -5 -35.5 -7.5t-41.5 -2.5q-63 0 -94 26t-31 96v514z" />
    <glyph glyph-name="uni2070" unicode="&#x2070;" horiz-adv-x="365" 
d="M131 642q0 -18 1 -38t3.5 -38t5.5 -32t8 -21q5 -8 13.5 -10t19.5 -2q12 0 20 2t13 10q4 7 8 21.5t6 32.5t3.5 37.5t1.5 37.5t-1.5 38t-3.5 38t-6 32.5t-8 20.5q-5 9 -13 11.5t-20 2.5q-11 0 -19.5 -2.5t-13.5 -11.5q-5 -6 -8 -20.5t-5.5 -32.5t-3.5 -38t-1 -38zM336 642
q0 -25 -3 -54t-10 -56t-17.5 -49.5t-26.5 -34.5q-20 -15 -40.5 -20.5t-56.5 -5.5t-56.5 5.5t-40.5 20.5q-15 12 -26 34.5t-18 49.5t-10 56t-3 54t3 54t9.5 56.5t17.5 50t27 34.5q20 15 40.5 20.5t56.5 5.5t56.5 -5.5t40.5 -20.5q16 -12 26.5 -34.5t17.5 -50t10 -56.5t3 -54z
" />
    <glyph glyph-name="uni2074" unicode="&#x2074;" horiz-adv-x="365" 
d="M21 580q0 9 1.5 18.5t11.5 35.5t31 76t60 140q2 6 8 6h81q7 0 7 -7q-58 -123 -84 -183t-26 -70q0 -5 5 -5h82q4 0 4 4v116q0 7 6 7h82q6 0 6 -7v-116q0 -4 4 -4h37q6 0 6 -7v-67q0 -6 -6 -6h-37q-4 0 -4 -4v-73q0 -6 -6 -6h-82q-6 0 -6 6v73q0 4 -4 4h-171q-6 0 -6 6v63z
" />
    <glyph glyph-name="uni2075" unicode="&#x2075;" horiz-adv-x="365" 
d="M163 776q-6 0 -7 -5l-4 -72q0 -5 4 -5q43 0 74.5 -5t52.5 -18.5t31 -37.5t10 -61q0 -47 -13 -76.5t-37 -46t-57 -22t-73 -5.5q-26 0 -54 2.5t-47 7.5q-3 0 -3 5l5 72q0 5 5 3q16 -4 42 -6.5t43 -2.5q46 0 65 12.5t19 47.5q0 19 -5 30.5t-18 17.5t-36.5 8t-59.5 2h-34
q-11 0 -11 12l7 215q0 8 7 8h239q7 0 7 -6v-67q0 -7 -7 -7h-145z" />
    <glyph glyph-name="uni2076" unicode="&#x2076;" horiz-adv-x="365" 
d="M238 562q0 23 -3 36.5t-9.5 21t-17.5 10t-26 2.5q-17 0 -28 -2.5t-17 -10t-8.5 -21.5t-2.5 -36t3 -34.5t9.5 -19t17.5 -8.5t26 -2q16 0 27 2t17.5 8.5t9 19t2.5 34.5zM273 846q-9 -11 -22.5 -26.5t-28.5 -35t-30.5 -41t-27.5 -42.5q-2 -2 -2 -6t5 -4q11 1 22.5 3.5
t31.5 2.5q34 0 56.5 -7.5t35.5 -24t18 -42t5 -60.5q0 -44 -10 -71.5t-29.5 -43t-48 -21t-64.5 -5.5q-41 0 -70 6.5t-48 22t-28 42t-9 67.5q0 35 4.5 66t18 64.5t39 71.5t67.5 88q5 6 16 6h91q13 0 8 -10z" />
    <glyph glyph-name="uni2077" unicode="&#x2077;" horiz-adv-x="365" 
d="M320 772q-14 -33 -28.5 -60.5t-28.5 -53t-26.5 -51.5t-22.5 -56q-11 -32 -14 -58t-3 -57q0 -6 -2 -7t-5 -1h-89q-10 0 -10 6v18q0 58 19 108t42 90t42 70t19 47q0 4 -4 4h-161q-7 0 -7 6v73q0 6 7 6h269q7 0 7 -6v-60q0 -7 -4 -18z" />
    <glyph glyph-name="uni2078" unicode="&#x2078;" horiz-adv-x="365" 
d="M99 657q-29 13 -46.5 38t-17.5 63q0 61 39.5 83t107.5 22q69 0 108 -22t39 -83q0 -37 -17 -61t-46 -37q-4 0 -4 -5t4 -5q40 -20 57 -47.5t17 -67.5q0 -34 -11 -56t-32 -34.5t-50 -17.5t-65 -5t-65 5t-49.5 17.5t-31.5 34.5t-11 56q0 40 16.5 67t56.5 45q4 0 4 5q0 2 -2 4
zM244 548q0 28 -17.5 49t-45.5 21q-27 0 -43.5 -21t-16.5 -49q0 -30 14 -41t47 -11t47.5 11t14.5 41zM235 746q0 26 -10.5 37t-41.5 11q-32 0 -43.5 -10.5t-11.5 -37.5q0 -26 13.5 -45.5t40.5 -19.5t40 19.5t13 45.5z" />
    <glyph glyph-name="uni2079" unicode="&#x2079;" horiz-adv-x="365" 
d="M128 723q0 -23 3 -36.5t9.5 -21t17 -10t25.5 -2.5q17 0 28 2.5t17 10t8.5 21t2.5 36.5q0 22 -3 34.5t-9.5 19t-17.5 8.5t-26 2q-17 0 -27.5 -2t-16.5 -8.5t-8.5 -19t-2.5 -34.5zM92 438q9 10 22.5 26.5t28.5 35.5t30.5 40.5t27.5 42.5q2 4 2 7q0 4 -5 4
q-11 -1 -22.5 -3.5t-31.5 -2.5q-35 0 -57 7.5t-35.5 24t-18.5 41.5t-5 60q0 45 10.5 72.5t30 43t48 21t64.5 5.5q40 0 69.5 -6.5t48.5 -22t28 -42.5t9 -67q0 -35 -4.5 -66t-18 -64.5t-39.5 -72.5t-68 -88q-5 -6 -15 -6h-91q-13 0 -8 10z" />
    <glyph glyph-name="zero.dnom" horiz-adv-x="365" 
d="M131 214q0 -18 1 -38t3.5 -38t5.5 -32t8 -21q5 -8 13.5 -10t19.5 -2q12 0 20 2t13 10q4 7 8 21.5t6 32.5t3.5 37.5t1.5 37.5t-1.5 38t-3.5 38t-6 32.5t-8 20.5q-5 9 -13 11.5t-20 2.5q-11 0 -19.5 -2.5t-13.5 -11.5q-5 -6 -8 -20.5t-5.5 -32.5t-3.5 -38t-1 -38zM336 214
q0 -25 -3 -54t-10 -56t-17.5 -49.5t-26.5 -34.5q-20 -15 -40.5 -20.5t-56.5 -5.5t-56.5 5.5t-40.5 20.5q-15 12 -26 34.5t-18 49.5t-10 56t-3 54t3 54t9.5 56.5t17.5 50t27 34.5q20 15 40.5 20.5t56.5 5.5t56.5 -5.5t40.5 -20.5q16 -12 26.5 -34.5t17.5 -50t10 -56.5t3 -54z
" />
    <glyph glyph-name="one.dnom" horiz-adv-x="365" 
d="M139 427q3 1 6.5 1h6.5h82q6 0 6 -6v-335q0 -4 4 -4h69q6 0 6 -6v-71q0 -6 -6 -6h-255q-6 0 -6 6v71q0 6 6 6h80q4 0 4 4v255q-3 3 -4 3l-86 -19q-7 0 -7 6v69q0 5 7 7z" />
    <glyph glyph-name="two.dnom" horiz-adv-x="365" 
d="M38 60q0 22 3 39.5t11.5 33.5t24 32t39.5 35q32 21 51.5 35.5t30.5 27t14.5 24.5t3.5 28q0 22 -16 28.5t-47 6.5q-9 0 -21.5 -1t-25.5 -2.5t-25 -3.5t-20 -4q-7 0 -7 7l-5 64q0 5 0.5 6.5t5.5 3.5q7 2 20.5 4.5t30 5t34.5 4t34 1.5q33 0 61 -4t48.5 -15.5t31.5 -33
t11 -55.5q0 -41 -13 -68t-50 -55q-39 -30 -62 -46.5t-35 -27.5t-16 -19.5t-4 -22.5q0 -7 7 -7h165q7 0 7 -6v-69q0 -6 -7 -6h-271q-9 0 -9 6v54z" />
    <glyph glyph-name="three.dnom" horiz-adv-x="365" 
d="M197 254q-3 -2 -3 -5q0 -4 3 -4q69 -1 98.5 -30.5t29.5 -84.5q0 -42 -13 -68.5t-36.5 -41.5t-55.5 -20.5t-70 -5.5q-23 0 -50.5 3t-54.5 8q-6 0 -6 6l6 66q0 6 6 6q19 -4 44 -6t40 -2q43 0 62.5 10.5t19.5 50.5q0 15 -5.5 25t-18.5 16t-35 8.5t-55 2.5h-27q-7 0 -7 4v50
q0 5 7 11q52 35 83.5 61.5t31.5 31.5q0 3 -4 3h-140q-5 0 -5 6v67q0 6 6 6h262q7 0 7 -4v-69q0 -2 -1.5 -5t-6.5 -8q-20 -19 -47 -40.5t-65 -47.5z" />
    <glyph glyph-name="four.dnom" horiz-adv-x="365" 
d="M21 152q0 9 1.5 18.5t11.5 35.5t31 76t60 140q2 6 8 6h81q7 0 7 -7q-58 -123 -84 -183t-26 -70q0 -5 5 -5h82q4 0 4 4v116q0 7 6 7h82q6 0 6 -7v-116q0 -4 4 -4h37q6 0 6 -7v-67q0 -6 -6 -6h-37q-4 0 -4 -4v-73q0 -6 -6 -6h-82q-6 0 -6 6v73q0 4 -4 4h-171q-6 0 -6 6v63z
" />
    <glyph glyph-name="five.dnom" horiz-adv-x="365" 
d="M163 348q-6 0 -7 -5l-4 -72q0 -5 4 -5q43 0 74.5 -5t52.5 -18.5t31 -37.5t10 -61q0 -47 -13 -76.5t-37 -46t-57 -22t-73 -5.5q-26 0 -54 2.5t-47 7.5q-3 0 -3 5l5 72q0 5 5 3q16 -4 42 -6.5t43 -2.5q46 0 65 12.5t19 47.5q0 19 -5 30.5t-18 17.5t-36.5 8t-59.5 2h-34
q-11 0 -11 12l7 215q0 8 7 8h239q7 0 7 -6v-67q0 -7 -7 -7h-145z" />
    <glyph glyph-name="six.dnom" horiz-adv-x="365" 
d="M238 134q0 23 -3 36.5t-9.5 21t-17.5 10t-26 2.5q-17 0 -28 -2.5t-17 -10t-8.5 -21.5t-2.5 -36t3 -34.5t9.5 -19t17.5 -8.5t26 -2q16 0 27 2t17.5 8.5t9 19t2.5 34.5zM273 418q-9 -11 -22.5 -26.5t-28.5 -35t-30.5 -41t-27.5 -42.5q-2 -2 -2 -6t5 -4q11 1 22.5 3.5
t31.5 2.5q34 0 56.5 -7.5t35.5 -24t18 -42t5 -60.5q0 -44 -10 -71.5t-29.5 -43t-48 -21t-64.5 -5.5q-41 0 -70 6.5t-48 22t-28 42t-9 67.5q0 35 4.5 66t18 64.5t39 71.5t67.5 88q5 6 16 6h91q13 0 8 -10z" />
    <glyph glyph-name="seven.dnom" horiz-adv-x="365" 
d="M320 344q-14 -33 -28.5 -60.5t-28.5 -53t-26.5 -51.5t-22.5 -56q-11 -32 -14 -58t-3 -57q0 -6 -2 -7t-5 -1h-89q-10 0 -10 6v18q0 58 19 108t42 90t42 70t19 47q0 4 -4 4h-161q-7 0 -7 6v73q0 6 7 6h269q7 0 7 -6v-60q0 -7 -4 -18z" />
    <glyph glyph-name="eight.dnom" horiz-adv-x="365" 
d="M99 229q-29 13 -46.5 38t-17.5 63q0 61 39.5 83t107.5 22q69 0 108 -22t39 -83q0 -37 -17 -61t-46 -37q-4 0 -4 -5t4 -5q40 -20 57 -47.5t17 -67.5q0 -34 -11 -56t-32 -34.5t-50 -17.5t-65 -5t-65 5t-49.5 17.5t-31.5 34.5t-11 56q0 40 16.5 67t56.5 45q4 0 4 5q0 2 -2 4
zM244 120q0 28 -17.5 49t-45.5 21q-27 0 -43.5 -21t-16.5 -49q0 -30 14 -41t47 -11t47.5 11t14.5 41zM235 318q0 26 -10.5 37t-41.5 11q-32 0 -43.5 -10.5t-11.5 -37.5q0 -26 13.5 -45.5t40.5 -19.5t40 19.5t13 45.5z" />
    <glyph glyph-name="nine.dnom" horiz-adv-x="365" 
d="M128 295q0 -23 3 -36.5t9.5 -21t17 -10t25.5 -2.5q17 0 28 2.5t17 10t8.5 21t2.5 36.5q0 22 -3 34.5t-9.5 19t-17.5 8.5t-26 2q-17 0 -27.5 -2t-16.5 -8.5t-8.5 -19t-2.5 -34.5zM92 10q9 10 22.5 26.5t28.5 35.5t30.5 40.5t27.5 42.5q2 4 2 7q0 4 -5 4q-11 -1 -22.5 -3.5
t-31.5 -2.5q-35 0 -57 7.5t-35.5 24t-18.5 41.5t-5 60q0 45 10.5 72.5t30 43t48 21t64.5 5.5q40 0 69.5 -6.5t48.5 -22t28 -42.5t9 -67q0 -35 -4.5 -66t-18 -64.5t-39.5 -72.5t-68 -88q-5 -6 -15 -6h-91q-13 0 -8 10z" />
    <glyph glyph-name="zero.frac" horiz-adv-x="365" 
d="M131 466q0 -18 1 -38t3.5 -38t5.5 -32t8 -21q5 -8 13.5 -10t19.5 -2q12 0 20 2t13 10q4 7 8 21.5t6 32.5t3.5 37.5t1.5 37.5t-1.5 38t-3.5 38t-6 32.5t-8 20.5q-5 9 -13 11.5t-20 2.5q-11 0 -19.5 -2.5t-13.5 -11.5q-5 -6 -8 -20.5t-5.5 -32.5t-3.5 -38t-1 -38zM336 466
q0 -25 -3 -54t-10 -56t-17.5 -49.5t-26.5 -34.5q-20 -15 -40.5 -20.5t-56.5 -5.5t-56.5 5.5t-40.5 20.5q-15 12 -26 34.5t-18 49.5t-10 56t-3 54t3 54t9.5 56.5t17.5 50t27 34.5q20 15 40.5 20.5t56.5 5.5t56.5 -5.5t40.5 -20.5q16 -12 26.5 -34.5t17.5 -50t10 -56.5t3 -54z
" />
    <glyph glyph-name="one.frac" horiz-adv-x="365" 
d="M139 679q3 1 6.5 1h6.5h82q6 0 6 -6v-335q0 -4 4 -4h69q6 0 6 -6v-71q0 -6 -6 -6h-255q-6 0 -6 6v71q0 6 6 6h80q4 0 4 4v255q-3 3 -4 3l-86 -19q-7 0 -7 6v69q0 5 7 7z" />
    <glyph glyph-name="two.frac" horiz-adv-x="365" 
d="M38 312q0 22 3 39.5t11.5 33.5t24 32t39.5 35q32 21 51.5 35.5t30.5 27t14.5 24.5t3.5 28q0 22 -16 28.5t-47 6.5q-9 0 -21.5 -1t-25.5 -2.5t-25 -3.5t-20 -4q-7 0 -7 7l-5 64q0 5 0.5 6.5t5.5 3.5q7 2 20.5 4.5t30 5t34.5 4t34 1.5q33 0 61 -4t48.5 -15.5t31.5 -33
t11 -55.5q0 -41 -13 -68t-50 -55q-39 -30 -62 -46.5t-35 -27.5t-16 -19.5t-4 -22.5q0 -7 7 -7h165q7 0 7 -6v-69q0 -6 -7 -6h-271q-9 0 -9 6v54z" />
    <glyph glyph-name="three.frac" horiz-adv-x="365" 
d="M197 506q-3 -2 -3 -5q0 -4 3 -4q69 -1 98.5 -30.5t29.5 -84.5q0 -42 -13 -68.5t-36.5 -41.5t-55.5 -20.5t-70 -5.5q-23 0 -50.5 3t-54.5 8q-6 0 -6 6l6 66q0 6 6 6q19 -4 44 -6t40 -2q43 0 62.5 10.5t19.5 50.5q0 15 -5.5 25t-18.5 16t-35 8.5t-55 2.5h-27q-7 0 -7 4v50
q0 5 7 11q52 35 83.5 61.5t31.5 31.5q0 3 -4 3h-140q-5 0 -5 6v67q0 6 6 6h262q7 0 7 -4v-69q0 -2 -1.5 -5t-6.5 -8q-20 -19 -47 -40.5t-65 -47.5z" />
    <glyph glyph-name="four.frac" horiz-adv-x="365" 
d="M21 404q0 9 1.5 18.5t11.5 35.5t31 76t60 140q2 6 8 6h81q7 0 7 -7q-58 -123 -84 -183t-26 -70q0 -5 5 -5h82q4 0 4 4v116q0 7 6 7h82q6 0 6 -7v-116q0 -4 4 -4h37q6 0 6 -7v-67q0 -6 -6 -6h-37q-4 0 -4 -4v-73q0 -6 -6 -6h-82q-6 0 -6 6v73q0 4 -4 4h-171q-6 0 -6 6v63z
" />
    <glyph glyph-name="five.frac" horiz-adv-x="365" 
d="M163 600q-6 0 -7 -5l-4 -72q0 -5 4 -5q43 0 74.5 -5t52.5 -18.5t31 -37.5t10 -61q0 -47 -13 -76.5t-37 -46t-57 -22t-73 -5.5q-26 0 -54 2.5t-47 7.5q-3 0 -3 5l5 72q0 5 5 3q16 -4 42 -6.5t43 -2.5q46 0 65 12.5t19 47.5q0 19 -5 30.5t-18 17.5t-36.5 8t-59.5 2h-34
q-11 0 -11 12l7 215q0 8 7 8h239q7 0 7 -6v-67q0 -7 -7 -7h-145z" />
    <glyph glyph-name="six.frac" horiz-adv-x="365" 
d="M238 386q0 23 -3 36.5t-9.5 21t-17.5 10t-26 2.5q-17 0 -28 -2.5t-17 -10t-8.5 -21.5t-2.5 -36t3 -34.5t9.5 -19t17.5 -8.5t26 -2q16 0 27 2t17.5 8.5t9 19t2.5 34.5zM273 670q-9 -11 -22.5 -26.5t-28.5 -35t-30.5 -41t-27.5 -42.5q-2 -2 -2 -6t5 -4q11 1 22.5 3.5
t31.5 2.5q34 0 56.5 -7.5t35.5 -24t18 -42t5 -60.5q0 -44 -10 -71.5t-29.5 -43t-48 -21t-64.5 -5.5q-41 0 -70 6.5t-48 22t-28 42t-9 67.5q0 35 4.5 66t18 64.5t39 71.5t67.5 88q5 6 16 6h91q13 0 8 -10z" />
    <glyph glyph-name="seven.frac" horiz-adv-x="365" 
d="M320 596q-14 -33 -28.5 -60.5t-28.5 -53t-26.5 -51.5t-22.5 -56q-11 -32 -14 -58t-3 -57q0 -6 -2 -7t-5 -1h-89q-10 0 -10 6v18q0 58 19 108t42 90t42 70t19 47q0 4 -4 4h-161q-7 0 -7 6v73q0 6 7 6h269q7 0 7 -6v-60q0 -7 -4 -18z" />
    <glyph glyph-name="eight.frac" horiz-adv-x="365" 
d="M99 481q-29 13 -46.5 38t-17.5 63q0 61 39.5 83t107.5 22q69 0 108 -22t39 -83q0 -37 -17 -61t-46 -37q-4 0 -4 -5t4 -5q40 -20 57 -47.5t17 -67.5q0 -34 -11 -56t-32 -34.5t-50 -17.5t-65 -5t-65 5t-49.5 17.5t-31.5 34.5t-11 56q0 40 16.5 67t56.5 45q4 0 4 5q0 2 -2 4
zM244 372q0 28 -17.5 49t-45.5 21q-27 0 -43.5 -21t-16.5 -49q0 -30 14 -41t47 -11t47.5 11t14.5 41zM235 570q0 26 -10.5 37t-41.5 11q-32 0 -43.5 -10.5t-11.5 -37.5q0 -26 13.5 -45.5t40.5 -19.5t40 19.5t13 45.5z" />
    <glyph glyph-name="nine.frac" horiz-adv-x="365" 
d="M128 547q0 -23 3 -36.5t9.5 -21t17 -10t25.5 -2.5q17 0 28 2.5t17 10t8.5 21t2.5 36.5q0 22 -3 34.5t-9.5 19t-17.5 8.5t-26 2q-17 0 -27.5 -2t-16.5 -8.5t-8.5 -19t-2.5 -34.5zM92 262q9 10 22.5 26.5t28.5 35.5t30.5 40.5t27.5 42.5q2 4 2 7q0 4 -5 4
q-11 -1 -22.5 -3.5t-31.5 -2.5q-35 0 -57 7.5t-35.5 24t-18.5 41.5t-5 60q0 45 10.5 72.5t30 43t48 21t64.5 5.5q40 0 69.5 -6.5t48.5 -22t28 -42.5t9 -67q0 -35 -4.5 -66t-18 -64.5t-39.5 -72.5t-68 -88q-5 -6 -15 -6h-91q-13 0 -8 10z" />
    <glyph glyph-name="uni2080" unicode="&#x2080;" horiz-adv-x="365" 
d="M131 59q0 -18 1 -38t3.5 -38t5.5 -32t8 -21q5 -8 13.5 -10t19.5 -2q12 0 20 2t13 10q4 7 8 21.5t6 32.5t3.5 37.5t1.5 37.5t-1.5 38t-3.5 38t-6 32.5t-8 20.5q-5 9 -13 11.5t-20 2.5q-11 0 -19.5 -2.5t-13.5 -11.5q-5 -6 -8 -20.5t-5.5 -32.5t-3.5 -38t-1 -38zM336 59
q0 -25 -3 -54t-10 -56t-17.5 -49.5t-26.5 -34.5q-20 -15 -40.5 -20.5t-56.5 -5.5t-56.5 5.5t-40.5 20.5q-15 12 -26 34.5t-18 49.5t-10 56t-3 54t3 54t9.5 56.5t17.5 50t27 34.5q20 15 40.5 20.5t56.5 5.5t56.5 -5.5t40.5 -20.5q16 -12 26.5 -34.5t17.5 -50t10 -56.5t3 -54z
" />
    <glyph glyph-name="uni2081" unicode="&#x2081;" horiz-adv-x="365" 
d="M139 272q3 1 6.5 1h6.5h82q6 0 6 -6v-335q0 -4 4 -4h69q6 0 6 -6v-71q0 -6 -6 -6h-255q-6 0 -6 6v71q0 6 6 6h80q4 0 4 4v255q-3 3 -4 3l-86 -19q-7 0 -7 6v69q0 5 7 7z" />
    <glyph glyph-name="uni2082" unicode="&#x2082;" horiz-adv-x="365" 
d="M38 -95q0 22 3 39.5t11.5 33.5t24 32t39.5 35q32 21 51.5 35.5t30.5 27t14.5 24.5t3.5 28q0 22 -16 28.5t-47 6.5q-9 0 -21.5 -1t-25.5 -2.5t-25 -3.5t-20 -4q-7 0 -7 7l-5 64q0 5 0.5 6.5t5.5 3.5q7 2 20.5 4.5t30 5t34.5 4t34 1.5q33 0 61 -4t48.5 -15.5t31.5 -33
t11 -55.5q0 -41 -13 -68t-50 -55q-39 -30 -62 -46.5t-35 -27.5t-16 -19.5t-4 -22.5q0 -7 7 -7h165q7 0 7 -6v-69q0 -6 -7 -6h-271q-9 0 -9 6v54z" />
    <glyph glyph-name="uni2083" unicode="&#x2083;" horiz-adv-x="365" 
d="M197 99q-3 -2 -3 -5q0 -4 3 -4q69 -1 98.5 -30.5t29.5 -84.5q0 -42 -13 -68.5t-36.5 -41.5t-55.5 -20.5t-70 -5.5q-23 0 -50.5 3t-54.5 8q-6 0 -6 6l6 66q0 6 6 6q19 -4 44 -6t40 -2q43 0 62.5 10.5t19.5 50.5q0 15 -5.5 25t-18.5 16t-35 8.5t-55 2.5h-27q-7 0 -7 4v50
q0 5 7 11q52 35 83.5 61.5t31.5 31.5q0 3 -4 3h-140q-5 0 -5 6v67q0 6 6 6h262q7 0 7 -4v-69q0 -2 -1.5 -5t-6.5 -8q-20 -19 -47 -40.5t-65 -47.5z" />
    <glyph glyph-name="uni2084" unicode="&#x2084;" horiz-adv-x="365" 
d="M21 -3q0 9 1.5 18.5t11.5 35.5t31 76t60 140q2 6 8 6h81q7 0 7 -7q-58 -123 -84 -183t-26 -70q0 -5 5 -5h82q4 0 4 4v116q0 7 6 7h82q6 0 6 -7v-116q0 -4 4 -4h37q6 0 6 -7v-67q0 -6 -6 -6h-37q-4 0 -4 -4v-73q0 -6 -6 -6h-82q-6 0 -6 6v73q0 4 -4 4h-171q-6 0 -6 6v63z
" />
    <glyph glyph-name="uni2085" unicode="&#x2085;" horiz-adv-x="365" 
d="M163 193q-6 0 -7 -5l-4 -72q0 -5 4 -5q43 0 74.5 -5t52.5 -18.5t31 -37.5t10 -61q0 -47 -13 -76.5t-37 -46t-57 -22t-73 -5.5q-26 0 -54 2.5t-47 7.5q-3 0 -3 5l5 72q0 5 5 3q16 -4 42 -6.5t43 -2.5q46 0 65 12.5t19 47.5q0 19 -5 30.5t-18 17.5t-36.5 8t-59.5 2h-34
q-11 0 -11 12l7 215q0 8 7 8h239q7 0 7 -6v-67q0 -7 -7 -7h-145z" />
    <glyph glyph-name="uni2086" unicode="&#x2086;" horiz-adv-x="365" 
d="M238 -21q0 23 -3 36.5t-9.5 21t-17.5 10t-26 2.5q-17 0 -28 -2.5t-17 -10t-8.5 -21.5t-2.5 -36t3 -34.5t9.5 -19t17.5 -8.5t26 -2q16 0 27 2t17.5 8.5t9 19t2.5 34.5zM273 263q-9 -11 -22.5 -26.5t-28.5 -35t-30.5 -41t-27.5 -42.5q-2 -2 -2 -6t5 -4q11 1 22.5 3.5
t31.5 2.5q34 0 56.5 -7.5t35.5 -24t18 -42t5 -60.5q0 -44 -10 -71.5t-29.5 -43t-48 -21t-64.5 -5.5q-41 0 -70 6.5t-48 22t-28 42t-9 67.5q0 35 4.5 66t18 64.5t39 71.5t67.5 88q5 6 16 6h91q13 0 8 -10z" />
    <glyph glyph-name="uni2087" unicode="&#x2087;" horiz-adv-x="365" 
d="M320 189q-14 -33 -28.5 -60.5t-28.5 -53t-26.5 -51.5t-22.5 -56q-11 -32 -14 -58t-3 -57q0 -6 -2 -7t-5 -1h-89q-10 0 -10 6v18q0 58 19 108t42 90t42 70t19 47q0 4 -4 4h-161q-7 0 -7 6v73q0 6 7 6h269q7 0 7 -6v-60q0 -7 -4 -18z" />
    <glyph glyph-name="uni2088" unicode="&#x2088;" horiz-adv-x="365" 
d="M99 74q-29 13 -46.5 38t-17.5 63q0 61 39.5 83t107.5 22q69 0 108 -22t39 -83q0 -37 -17 -61t-46 -37q-4 0 -4 -5t4 -5q40 -20 57 -47.5t17 -67.5q0 -34 -11 -56t-32 -34.5t-50 -17.5t-65 -5t-65 5t-49.5 17.5t-31.5 34.5t-11 56q0 40 16.5 67t56.5 45q4 0 4 5q0 2 -2 4z
M244 -35q0 28 -17.5 49t-45.5 21q-27 0 -43.5 -21t-16.5 -49q0 -30 14 -41t47 -11t47.5 11t14.5 41zM235 163q0 26 -10.5 37t-41.5 11q-32 0 -43.5 -10.5t-11.5 -37.5q0 -26 13.5 -45.5t40.5 -19.5t40 19.5t13 45.5z" />
    <glyph glyph-name="uni2089" unicode="&#x2089;" horiz-adv-x="365" 
d="M128 140q0 -23 3 -36.5t9.5 -21t17 -10t25.5 -2.5q17 0 28 2.5t17 10t8.5 21t2.5 36.5q0 22 -3 34.5t-9.5 19t-17.5 8.5t-26 2q-17 0 -27.5 -2t-16.5 -8.5t-8.5 -19t-2.5 -34.5zM92 -145q9 10 22.5 26.5t28.5 35.5t30.5 40.5t27.5 42.5q2 4 2 7q0 4 -5 4
q-11 -1 -22.5 -3.5t-31.5 -2.5q-35 0 -57 7.5t-35.5 24t-18.5 41.5t-5 60q0 45 10.5 72.5t30 43t48 21t64.5 5.5q40 0 69.5 -6.5t48.5 -22t28 -42.5t9 -67q0 -35 -4.5 -66t-18 -64.5t-39.5 -72.5t-68 -88q-5 -6 -15 -6h-91q-13 0 -8 10z" />
    </font>
</defs>
</svg>
